  0
SECTION
  2
HEADER
  9
$ACADVER
  1
AC1015
  9
$ACADMAINTVER
 70
     6
  9
$DWGCODEPAGE
  3
ANSI_1252
  9
$INSBASE
 10
0.0
 20
0.0
 30
0.0
  9
$EXTMIN
 10
0.0
 20
0.0
 30
0.0
  9
$EXTMAX
 10
1050.000000000001
 20
1485.000000000001
 30
0.0
  9
$LIMMIN
 10
0.0
 20
0.0
  9
$LIMMAX
 10
12.0
 20
9.0
  9
$ORTHOMODE
 70
     0
  9
$REGENMODE
 70
     1
  9
$FILLMODE
 70
     1
  9
$QTEXTMODE
 70
     0
  9
$MIRRTEXT
 70
     1
  9
$LTSCALE
 40
1.0
  9
$ATTMODE
 70
     1
  9
$TEXTSIZE
 40
0.2
  9
$TRACEWID
 40
0.05
  9
$TEXTSTYLE
  7
Standard
  9
$CLAYER
  8
0
  9
$CELTYPE
  6
ByLayer
  9
$CECOLOR
 62
   256
  9
$CELTSCALE
 40
1.0
  9
$DISPSILH
 70
     0
  9
$DIMSCALE
 40
1.0
  9
$DIMASZ
 40
0.18
  9
$DIMEXO
 40
0.0625
  9
$DIMDLI
 40
0.38
  9
$DIMRND
 40
0.0
  9
$DIMDLE
 40
0.0
  9
$DIMEXE
 40
0.18
  9
$DIMTP
 40
0.0
  9
$DIMTM
 40
0.0
  9
$DIMTXT
 40
0.18
  9
$DIMCEN
 40
0.09
  9
$DIMTSZ
 40
0.0
  9
$DIMTOL
 70
     0
  9
$DIMLIM
 70
     0
  9
$DIMTIH
 70
     1
  9
$DIMTOH
 70
     1
  9
$DIMSE1
 70
     0
  9
$DIMSE2
 70
     0
  9
$DIMTAD
 70
     0
  9
$DIMZIN
 70
     0
  9
$DIMBLK
  1

  9
$DIMASO
 70
     1
  9
$DIMSHO
 70
     1
  9
$DIMPOST
  1

  9
$DIMAPOST
  1

  9
$DIMALT
 70
     0
  9
$DIMALTD
 70
     2
  9
$DIMALTF
 40
25.4
  9
$DIMLFAC
 40
1.0
  9
$DIMTOFL
 70
     0
  9
$DIMTVP
 40
0.0
  9
$DIMTIX
 70
     0
  9
$DIMSOXD
 70
     0
  9
$DIMSAH
 70
     0
  9
$DIMBLK1
  1

  9
$DIMBLK2
  1

  9
$DIMSTYLE
  2
Standard
  9
$DIMCLRD
 70
     0
  9
$DIMCLRE
 70
     0
  9
$DIMCLRT
 70
     0
  9
$DIMTFAC
 40
1.0
  9
$DIMGAP
 40
0.09
  9
$DIMJUST
 70
     0
  9
$DIMSD1
 70
     0
  9
$DIMSD2
 70
     0
  9
$DIMTOLJ
 70
     1
  9
$DIMTZIN
 70
     0
  9
$DIMALTZ
 70
     0
  9
$DIMALTTZ
 70
     0
  9
$DIMUPT
 70
     0
  9
$DIMDEC
 70
     4
  9
$DIMTDEC
 70
     4
  9
$DIMALTU
 70
     2
  9
$DIMALTTD
 70
     2
  9
$DIMTXSTY
  7
Standard
  9
$DIMAUNIT
 70
     0
  9
$DIMADEC
 70
     0
  9
$DIMALTRND
 40
0.0
  9
$DIMAZIN
 70
     0
  9
$DIMDSEP
 70
    46
  9
$DIMATFIT
 70
     3
  9
$DIMFRAC
 70
     0
  9
$DIMLDRBLK
  1

  9
$DIMLUNIT
 70
     2
  9
$DIMLWD
 70
    -2
  9
$DIMLWE
 70
    -2
  9
$DIMTMOVE
 70
     0
  9
$LUNITS
 70
     2
  9
$LUPREC
 70
     4
  9
$SKETCHINC
 40
0.1
  9
$FILLETRAD
 40
0.5
  9
$AUNITS
 70
     0
  9
$AUPREC
 70
     0
  9
$MENU
  1
.
  9
$ELEVATION
 40
0.0
  9
$PELEVATION
 40
0.0
  9
$THICKNESS
 40
0.0
  9
$LIMCHECK
 70
     0
  9
$CHAMFERA
 40
0.5
  9
$CHAMFERB
 40
0.5
  9
$CHAMFERC
 40
1.0
  9
$CHAMFERD
 40
0.0
  9
$SKPOLY
 70
     0
  9
$TDCREATE
 40
2456997.441992407
  9
$TDUCREATE
 40
2456997.400325741
  9
$TDUPDATE
 40
2456997.441992581
  9
$TDUUPDATE
 40
2456997.400325914
  9
$TDINDWG
 40
0.0000000116
  9
$TDUSRTIMER
 40
0.0000000116
  9
$USRTIMER
 70
     1
  9
$ANGBASE
 50
0.0
  9
$ANGDIR
 70
     0
  9
$PDMODE
 70
     0
  9
$PDSIZE
 40
0.0
  9
$PLINEWID
 40
0.0
  9
$SPLFRAME
 70
     0
  9
$SPLINETYPE
 70
     6
  9
$SPLINESEGS
 70
     8
  9
$HANDSEED
  5
2CF
  9
$SURFTAB1
 70
     6
  9
$SURFTAB2
 70
     6
  9
$SURFTYPE
 70
     6
  9
$SURFU
 70
     6
  9
$SURFV
 70
     6
  9
$UCSBASE
  2

  9
$UCSNAME
  2

  9
$UCSORG
 10
0.0
 20
0.0
 30
0.0
  9
$UCSXDIR
 10
1.0
 20
0.0
 30
0.0
  9
$UCSYDIR
 10
0.0
 20
1.0
 30
0.0
  9
$UCSORTHOREF
  2

  9
$UCSORTHOVIEW
 70
     0
  9
$UCSORGTOP
 10
0.0
 20
0.0
 30
0.0
  9
$UCSORGBOTTOM
 10
0.0
 20
0.0
 30
0.0
  9
$UCSORGLEFT
 10
0.0
 20
0.0
 30
0.0
  9
$UCSORGRIGHT
 10
0.0
 20
0.0
 30
0.0
  9
$UCSORGFRONT
 10
0.0
 20
0.0
 30
0.0
  9
$UCSORGBACK
 10
0.0
 20
0.0
 30
0.0
  9
$PUCSBASE
  2

  9
$PUCSNAME
  2

  9
$PUCSORG
 10
0.0
 20
0.0
 30
0.0
  9
$PUCSXDIR
 10
1.0
 20
0.0
 30
0.0
  9
$PUCSYDIR
 10
0.0
 20
1.0
 30
0.0
  9
$PUCSORTHOREF
  2

  9
$PUCSORTHOVIEW
 70
     0
  9
$PUCSORGTOP
 10
0.0
 20
0.0
 30
0.0
  9
$PUCSORGBOTTOM
 10
0.0
 20
0.0
 30
0.0
  9
$PUCSORGLEFT
 10
0.0
 20
0.0
 30
0.0
  9
$PUCSORGRIGHT
 10
0.0
 20
0.0
 30
0.0
  9
$PUCSORGFRONT
 10
0.0
 20
0.0
 30
0.0
  9
$PUCSORGBACK
 10
0.0
 20
0.0
 30
0.0
  9
$USERI1
 70
     0
  9
$USERI2
 70
     0
  9
$USERI3
 70
     0
  9
$USERI4
 70
     0
  9
$USERI5
 70
     0
  9
$USERR1
 40
18.1
  9
$USERR2
 40
0.0
  9
$USERR3
 40
0.0
  9
$USERR4
 40
0.0
  9
$USERR5
 40
0.0
  9
$WORLDVIEW
 70
     1
  9
$SHADEDGE
 70
     3
  9
$SHADEDIF
 70
    70
  9
$TILEMODE
 70
     1
  9
$MAXACTVP
 70
    64
  9
$PINSBASE
 10
0.0
 20
0.0
 30
0.0
  9
$PLIMCHECK
 70
     0
  9
$PEXTMIN
 10
1.00000000000000E+20
 20
1.00000000000000E+20
 30
1.00000000000000E+20
  9
$PEXTMAX
 10
-1.00000000000000E+20
 20
-1.00000000000000E+20
 30
-1.00000000000000E+20
  9
$PLIMMIN
 10
0.0
 20
0.0
  9
$PLIMMAX
 10
12.0
 20
9.0
  9
$UNITMODE
 70
     0
  9
$VISRETAIN
 70
     1
  9
$PLINEGEN
 70
     0
  9
$PSLTSCALE
 70
     1
  9
$TREEDEPTH
 70
  3020
  9
$CMLSTYLE
  2
Standard
  9
$CMLJUST
 70
     0
  9
$CMLSCALE
 40
1.0
  9
$PROXYGRAPHICS
 70
     1
  9
$MEASUREMENT
 70
     1
  9
$CELWEIGHT
370
    -1
  9
$ENDCAPS
280
     0
  9
$JOINSTYLE
280
     0
  9
$LWDISPLAY
290
     0
  9
$INSUNITS
 70
     4
  9
$HYPERLINKBASE
  1

  9
$STYLESHEET
  1

  9
$XEDIT
290
     1
  9
$CEPSNTYPE
380
     0
  9
$PSTYLEMODE
290
     1
  9
$FINGERPRINTGUID
  2
{7C5374AC-E361-4B66-8CAA-C4E87A9DBC5B}
  9
$VERSIONGUID
  2
{FAEB1C32-E019-11D5-929B-00C0DF256EC4}
  9
$EXTNAMES
290
     1
  9
$PSVPSCALE
 40
0.0
  9
$OLESTARTUP
290
     0
  0
ENDSEC
  0
SECTION
  2
CLASSES
  0
CLASS
  1
ACDBDICTIONARYWDFLT
  2
AcDbDictionaryWithDefault
  3
ObjectDBX Classes
 90
        0
280
     0
281
     0
  0
CLASS
  1
VISUALSTYLE
  2
AcDbVisualStyle
  3
ObjectDBX Classes
 90
     4095
280
     0
281
     0
  0
CLASS
  1
MATERIAL
  2
AcDbMaterial
  3
ObjectDBX Classes
 90
     1153
280
     0
281
     0
  0
CLASS
  1
DICTIONARYVAR
  2
AcDbDictionaryVar
  3
ObjectDBX Classes
 90
        0
280
     0
281
     0
  0
CLASS
  1
ACDBPLACEHOLDER
  2
AcDbPlaceHolder
  3
ObjectDBX Classes
 90
        0
280
     0
281
     0
  0
CLASS
  1
LAYOUT
  2
AcDbLayout
  3
ObjectDBX Classes
 90
        0
280
     0
281
     0
  0
ENDSEC
  0
SECTION
  2
TABLES
  0
TABLE
  2
VPORT
  5
8
330
0
100
AcDbSymbolTable
 70
     1
  0
VPORT
  5
29
330
8
100
AcDbSymbolTableRecord
100
AcDbViewportTableRecord
  2
*Active
 70
     0
 10
0.0
 20
0.0
 11
1.0
 21
1.0
 12
525.0000000000005
 22
742.5000000000005
 13
0.0
 23
0.0
 14
0.5
 24
0.5
 15
0.5
 25
0.5
 16
0.0
 26
0.0
 36
1.0
 17
0.0
 27
0.0
 37
0.0
 40
1633.500000000001
 41
1.60267857142857
 42
50.0
 43
0.0
 44
0.0
 50
0.0
 51
0.0
 71
     0
 72
   100
 73
     1
 74
     3
 75
     0
 76
     0
 77
     0
 78
     0
281
     0
 65
     1
110
0.0
120
0.0
130
0.0
111
1.0
121
0.0
131
0.0
112
0.0
122
1.0
132
0.0
 79
     0
146
0.0
  0
ENDTAB
  0
TABLE
  2
LTYPE
  5
5
330
0
100
AcDbSymbolTable
 70
     8
  0
LTYPE
  5
14
330
5
100
AcDbSymbolTableRecord
100
AcDbLinetypeTableRecord
  2
ByBlock
 70
     0
  3

 72
    65
 73
     0
 40
0.0
  0
LTYPE
  5
15
330
5
100
AcDbSymbolTableRecord
100
AcDbLinetypeTableRecord
  2
ByLayer
 70
     0
  3

 72
    65
 73
     0
 40
0.0
  0
LTYPE
  5
16
330
5
100
AcDbSymbolTableRecord
100
AcDbLinetypeTableRecord
  2
Continuous
 70
     0
  3
Solid line
 72
    65
 73
     0
 40
0.0
  0
LTYPE
  5
3F
330
5
100
AcDbSymbolTableRecord
100
AcDbLinetypeTableRecord
  2
DASHED
 70
     0
  3
Dashed
 72
    65
 73
     2
 40
15.0
 49
7.0
 74
     0
 49
-8.0
 74
     0
  0
LTYPE
  5
40
330
5
100
AcDbSymbolTableRecord
100
AcDbLinetypeTableRecord
  2
DOTTED
 70
     0
  3
Dotted
 72
    65
 73
     2
 40
1.0
 49
0.0
 74
     0
 49
-1.0
 74
     0
  0
LTYPE
  5
41
330
5
100
AcDbSymbolTableRecord
100
AcDbLinetypeTableRecord
  2
DOT_CENTER
 70
     0
  3
Dot_Center
 72
    65
 73
     4
 40
14.0
 49
12.0
 74
     0
 49
-1.0
 74
     0
 49
0.0
 74
     0
 49
-1.0
 74
     0
  0
LTYPE
  5
42
330
5
100
AcDbSymbolTableRecord
100
AcDbLinetypeTableRecord
  2
LONG_DASHED
 70
     0
  3
Long_Dashed
 72
    65
 73
     2
 40
15.0
 49
10.0
 74
     0
 49
-5.0
 74
     0
  0
LTYPE
  5
43
330
5
100
AcDbSymbolTableRecord
100
AcDbLinetypeTableRecord
  2
DASH_CENTER
 70
     0
  3
Dash_Center
 72
    65
 73
     4
 40
14.0
 49
11.0
 74
     0
 49
-1.0
 74
     0
 49
1.0
 74
     0
 49
-1.0
 74
     0
  0
LTYPE
  5
44
330
5
100
AcDbSymbolTableRecord
100
AcDbLinetypeTableRecord
  2
PHANTOM
 70
     0
  3
Phantom
 72
    65
 73
     6
 40
13.0
 49
10.0
 74
     0
 49
-1.0
 74
     0
 49
0.0
 74
     0
 49
-1.0
 74
     0
 49
0.0
 74
     0
 49
-1.0
 74
     0
  0
LTYPE
  5
45
330
5
100
AcDbSymbolTableRecord
100
AcDbLinetypeTableRecord
  2
CENTER_DASH_DASH
 70
     0
  3
Center_Dash_Dash
 72
    65
 73
     6
 40
14.0
 49
9.0
 74
     0
 49
-1.0
 74
     0
 49
1.0
 74
     0
 49
-1.0
 74
     0
 49
1.0
 74
     0
 49
-1.0
 74
     0
  0
ENDTAB
  0
TABLE
  2
LAYER
  5
2
330
0
100
AcDbSymbolTable
 70
     2
  0
LAYER
  5
10
330
2
100
AcDbSymbolTableRecord
100
AcDbLayerTableRecord
  2
0
 70
     0
 62
     7
  6
Continuous
370
    -3
390
F
  0
LAYER
  5
46
330
2
100
AcDbSymbolTableRecord
100
AcDbLayerTableRecord
  2
1
 70
     0
 62
     7
  6
Continuous
370
    -3
390
F
  0
ENDTAB
  0
TABLE
  2
STYLE
  5
3
330
0
100
AcDbSymbolTable
 70
     4
  0
STYLE
  5
11
330
3
100
AcDbSymbolTableRecord
100
AcDbTextStyleTableRecord
  2
Standard
 70
     0
 40
0.0
 41
1.0
 50
0.0
 71
     0
 42
0.2
  3
txt
  4

  0
STYLE
  5
92
330
3
100
AcDbSymbolTableRecord
100
AcDbTextStyleTableRecord
  2
CONVERTER_11
 70
     0
 40
0.0
 41
1.38
 50
0.0
 71
     0
 42
0.2
  3
ARIAL.TTF
  4

  0
STYLE
  5
94
330
3
100
AcDbSymbolTableRecord
100
AcDbTextStyleTableRecord
  2
CONVERTER_12
 70
     0
 40
0.0
 41
1.2
 50
0.0
 71
     0
 42
0.2
  3
ARIAL.TTF
  4

  0
STYLE
  5
287
330
3
100
AcDbSymbolTableRecord
100
AcDbTextStyleTableRecord
  2
CONVERTER_13
 70
     0
 40
0.0
 41
0.95
 50
0.0
 71
     0
 42
0.2
  3
simplex.shx
  4

  0
ENDTAB
  0
TABLE
  2
VIEW
  5
6
330
0
100
AcDbSymbolTable
 70
     0
  0
ENDTAB
  0
TABLE
  2
UCS
  5
7
330
0
100
AcDbSymbolTable
 70
     0
  0
ENDTAB
  0
TABLE
  2
APPID
  5
9
330
0
100
AcDbSymbolTable
 70
     1
  0
APPID
  5
12
330
9
100
AcDbSymbolTableRecord
100
AcDbRegAppTableRecord
  2
ACAD
 70
     0
  0
ENDTAB
  0
TABLE
  2
DIMSTYLE
  5
A
330
0
100
AcDbSymbolTable
 70
     4
100
AcDbDimStyleTable
  0
DIMSTYLE
105
27
330
A
100
AcDbSymbolTableRecord
100
AcDbDimStyleTableRecord
  2
Standard
 70
     0
178
     0
340
11
  0
DIMSTYLE
105
28B
102
{ACAD_REACTORS
330
28C
102
}
330
A
100
AcDbSymbolTableRecord
100
AcDbDimStyleTableRecord
  2
ME10_DIM_10
 70
     0
 41
15.0
 42
2.5
 44
5.0
 73
     0
 74
     0
 77
     1
 78
     8
140
15.0
147
10.0
172
     1
173
     1
174
     1
175
     1
176
     2
177
     2
271
     2
178
     4
271
     2
340
287
  0
DIMSTYLE
105
297
102
{ACAD_REACTORS
330
298
102
}
330
A
100
AcDbSymbolTableRecord
100
AcDbDimStyleTableRecord
  2
ME10_DIM_11
 70
     0
 41
15.0
 42
2.5
 44
5.0
 73
     0
 74
     0
 77
     1
 78
     8
140
15.0
147
10.0
172
     1
173
     1
174
     1
175
     1
176
     2
177
     2
271
     2
178
     4
271
     2
340
287
  0
DIMSTYLE
105
2A2
102
{ACAD_REACTORS
330
2A3
102
}
330
A
100
AcDbSymbolTableRecord
100
AcDbDimStyleTableRecord
  2
ME10_DIM_12
 70
     0
 41
15.0
 42
2.5
 44
5.0
 77
     1
 78
     8
140
15.0
147
10.0
172
     1
173
     1
174
     1
175
     1
176
     2
177
     2
271
     2
178
     4
271
     2
340
287
  0
ENDTAB
  0
TABLE
  2
BLOCK_RECORD
  5
1
330
0
100
AcDbSymbolTable
 70
     6
  0
BLOCK_RECORD
  5
1F
330
1
100
AcDbSymbolTableRecord
100
AcDbBlockTableRecord
  2
*Model_Space
340
22
  0
BLOCK_RECORD
  5
1B
330
1
100
AcDbSymbolTableRecord
100
AcDbBlockTableRecord
  2
*Paper_Space
340
1E
  0
BLOCK_RECORD
  5
23
330
1
100
AcDbSymbolTableRecord
100
AcDbBlockTableRecord
  2
*Paper_Space0
340
26
  0
BLOCK_RECORD
  5
47
330
1
100
AcDbSymbolTableRecord
100
AcDbBlockTableRecord
  2
_formato_A4
340
0
102
{BLKREFS
331
4B
102
}
  0
BLOCK_RECORD
  5
4A
330
1
100
AcDbSymbolTableRecord
100
AcDbBlockTableRecord
  2
A4
340
0
102
{BLKREFS
331
4E
102
}
  0
BLOCK_RECORD
  5
281
330
1
100
AcDbSymbolTableRecord
100
AcDbBlockTableRecord
  2
*D3
340
0
  0
BLOCK_RECORD
  5
28D
330
1
100
AcDbSymbolTableRecord
100
AcDbBlockTableRecord
  2
*D4
340
0
  0
BLOCK_RECORD
  5
299
330
1
100
AcDbSymbolTableRecord
100
AcDbBlockTableRecord
  2
*D5
340
0
  0
ENDTAB
  0
ENDSEC
  0
SECTION
  2
BLOCKS
  0
BLOCK
  5
20
330
1F
100
AcDbEntity
  8
0
100
AcDbBlockBegin
  2
*Model_Space
 70
     0
 10
0.0
 20
0.0
 30
0.0
  3
*Model_Space
  1

  0
ENDBLK
  5
21
330
1F
100
AcDbEntity
  8
0
100
AcDbBlockEnd
  0
BLOCK
  5
1C
330
1B
100
AcDbEntity
 67
     1
  8
0
100
AcDbBlockBegin
  2
*Paper_Space
 70
     0
 10
0.0
 20
0.0
 30
0.0
  3
*Paper_Space
  1

  0
ENDBLK
  5
1D
330
1B
100
AcDbEntity
 67
     1
  8
0
100
AcDbBlockEnd
  0
BLOCK
  5
24
330
23
100
AcDbEntity
  8
0
100
AcDbBlockBegin
  2
*Paper_Space0
 70
     0
 10
0.0
 20
0.0
 30
0.0
  3
*Paper_Space0
  1

  0
ENDBLK
  5
25
330
23
100
AcDbEntity
  8
0
100
AcDbBlockEnd
  0
BLOCK
  5
48
330
47
100
AcDbEntity
  8
0
100
AcDbBlockBegin
  2
_formato_A4
 70
     0
 10
210.0000000000001
 20
0.0
 30
0.0
  3
_formato_A4
  1

  0
LINE
  5
4F
330
47
100
AcDbEntity
  8
1
  6
Continuous
 62
     7
100
AcDbLine
 10
21.00000000000009
 20
14.99999999999977
 30
0.0
 11
51.00000000000009
 21
14.99999999999977
 31
0.0
  0
LINE
  5
50
330
47
100
AcDbEntity
  8
1
  6
Continuous
 62
     7
100
AcDbLine
 10
21.00000000000009
 20
20.0
 30
0.0
 11
21.00000000000009
 21
5.0
 31
0.0
  0
LINE
  5
51
330
47
100
AcDbEntity
  8
1
  6
Continuous
 62
     7
100
AcDbLine
 10
161.0000000000001
 20
20.0
 30
0.0
 11
161.0000000000001
 21
5.0
 31
0.0
  0
LINE
  5
52
330
47
100
AcDbEntity
  8
1
  6
Continuous
 62
     7
100
AcDbLine
 10
178.3526013774855
 20
20.0
 30
0.0
 11
178.3526013774855
 21
5.0
 31
0.0
  0
LINE
  5
53
330
47
100
AcDbEntity
  8
1
  6
Continuous
 62
     7
100
AcDbLine
 10
51.00000000000009
 20
20.0
 30
0.0
 11
51.00000000000009
 21
5.0
 31
0.0
  0
LINE
  5
54
330
47
100
AcDbEntity
  8
1
  6
Continuous
 62
     7
100
AcDbLine
 10
21.00000000000009
 20
9.99999999999977
 30
0.0
 11
51.00000000000009
 21
9.99999999999977
 31
0.0
  0
LINE
  5
55
330
47
100
AcDbEntity
  8
1
  6
Continuous
 62
     7
100
AcDbLine
 10
0.0
 20
148.4999999999998
 30
0.0
 11
15.0
 21
148.4999999999998
 31
0.0
  0
LINE
  5
56
330
47
100
AcDbEntity
  8
1
  6
Continuous
 62
     7
100
AcDbLine
 10
210.0000000000001
 20
0.0
 30
0.0
 11
210.0000000000001
 21
297.0000000000001
 31
0.0
  0
LINE
  5
57
330
47
100
AcDbEntity
  8
1
  6
Continuous
 62
     7
100
AcDbLine
 10
0.0
 20
0.0
 30
0.0
 11
210.0000000000001
 21
0.0
 31
0.0
  0
LINE
  5
58
330
47
100
AcDbEntity
  8
1
  6
Continuous
 62
     7
100
AcDbLine
 10
0.0
 20
297.0000000000001
 30
0.0
 11
0.0
 21
0.0
 31
0.0
  0
LINE
  5
59
330
47
100
AcDbEntity
  8
1
  6
Continuous
 62
     7
100
AcDbLine
 10
210.0000000000001
 20
297.0000000000001
 30
0.0
 11
0.0
 21
297.0000000000001
 31
0.0
  0
LINE
  5
5A
330
47
100
AcDbEntity
  8
1
  6
Continuous
 62
     7
100
AcDbLine
 10
205.0000000000001
 20
5.0
 30
0.0
 11
205.0000000000001
 21
292.0000000000001
 31
0.0
  0
LINE
  5
5B
330
47
100
AcDbEntity
  8
1
  6
Continuous
 62
     7
100
AcDbLine
 10
205.0000000000001
 20
292.0000000000001
 30
0.0
 11
21.00000000000009
 21
292.0000000000001
 31
0.0
  0
LINE
  5
5C
330
47
100
AcDbEntity
  8
1
  6
Continuous
 62
     7
100
AcDbLine
 10
21.00000000000009
 20
292.0000000000001
 30
0.0
 11
21.00000000000009
 21
5.0
 31
0.0
  0
LINE
  5
5D
102
{ACAD_REACTORS
330
A0
102
}
330
47
100
AcDbEntity
  8
1
  6
Continuous
 62
     7
100
AcDbLine
 10
194.009634022076
 20
10.07749983983257
 30
0.0
 11
194.009634022076
 21
14.92250016016737
 31
0.0
  0
LINE
  5
5E
102
{ACAD_REACTORS
330
9D
102
}
330
47
100
AcDbEntity
  8
1
  6
Continuous
 62
     7
100
AcDbLine
 10
192.6763006887428
 20
12.5
 30
0.0
 11
192.6763006887428
 21
14.2320508075689
 31
0.0
  0
LINE
  5
5F
102
{ACAD_REACTORS
330
9D
102
}
330
47
100
AcDbEntity
  8
1
  6
Continuous
 62
     7
100
AcDbLine
 10
192.6763006887428
 20
14.2320508075689
 30
0.0
 11
191.82063825604
 21
12.75
 31
0.0
  0
LINE
  5
60
102
{ACAD_REACTORS
330
9D
102
}
330
47
100
AcDbEntity
  8
1
  6
Continuous
 62
     7
100
AcDbLine
 10
191.5319631214453
 20
12.75
 30
0.0
 11
190.6763006887428
 21
14.2320508075689
 31
0.0
  0
LINE
  5
61
102
{ACAD_REACTORS
330
9D
102
}
330
47
100
AcDbEntity
  8
1
  6
Continuous
 62
     7
100
AcDbLine
 10
190.6763006887428
 20
14.2320508075689
 30
0.0
 11
190.6763006887428
 21
12.5
 31
0.0
  0
LINE
  5
62
330
47
100
AcDbEntity
  8
1
  6
Continuous
 62
     7
100
AcDbLine
 10
183.2598654136012
 20
12.64436426434128
 30
0.0
 11
191.6763006887428
 21
17.5
 31
0.0
  0
LINE
  5
63
330
47
100
AcDbEntity
  8
1
  6
Continuous
 62
     7
100
AcDbLine
 10
191.6763006887428
 20
17.5
 30
0.0
 11
200.0927359638842
 21
12.64436426434128
 31
0.0
  0
LINE
  5
64
330
47
100
AcDbEntity
  8
1
  6
Continuous
 62
     7
100
AcDbLine
 10
200.0927359638842
 20
12.35563573565861
 30
0.0
 11
191.6763006887428
 21
7.5
 31
0.0
  0
LINE
  5
65
330
47
100
AcDbEntity
  8
1
  6
Continuous
 62
     7
100
AcDbLine
 10
191.6763006887428
 20
7.5
 30
0.0
 11
183.2598654136012
 21
12.35563573565861
 31
0.0
  0
LINE
  5
66
102
{ACAD_REACTORS
330
9D
102
}
330
47
100
AcDbEntity
  8
1
  6
Continuous
 62
     7
100
AcDbLine
 10
190.009634022076
 20
12.5
 30
0.0
 11
190.009634022076
 21
15.73121731203457
 31
0.0
  0
LINE
  5
67
102
{ACAD_REACTORS
330
9D
102
}
330
47
100
AcDbEntity
  8
1
  6
Continuous
 62
     7
100
AcDbLine
 10
190.5040677056995
 20
15.86370041827217
 30
0.0
 11
191.6763006887428
 21
13.8333333333332
 31
0.0
  0
LINE
  5
68
102
{ACAD_REACTORS
330
9D
102
}
330
47
100
AcDbEntity
  8
1
  6
Continuous
 62
     7
100
AcDbLine
 10
190.009634022076
 20
12.5
 30
0.0
 11
190.009634022076
 21
10.84758507263291
 31
0.0
  0
LINE
  5
69
102
{ACAD_REACTORS
330
9D
102
}
330
47
100
AcDbEntity
  8
1
  6
Continuous
 62
     7
100
AcDbLine
 10
190.6763006887428
 20
10.84758507263291
 30
0.0
 11
190.6763006887428
 21
12.5
 31
0.0
  0
LINE
  5
6A
102
{ACAD_REACTORS
330
9D
102
}
330
47
100
AcDbEntity
  8
1
  6
Continuous
 62
     7
100
AcDbLine
 10
192.6763006887428
 20
12.5
 30
0.0
 11
192.6763006887428
 21
9.30826907060191
 31
0.0
  0
LINE
  5
6B
102
{ACAD_REACTORS
330
9D
102
}
330
47
100
AcDbEntity
  8
1
  6
Continuous
 62
     7
100
AcDbLine
 10
193.3429673554094
 20
9.30826907060191
 30
0.0
 11
193.3429673554094
 21
15.73121731203457
 31
0.0
  0
LINE
  5
6C
102
{ACAD_REACTORS
330
9D
102
}
330
47
100
AcDbEntity
  8
1
  6
Continuous
 62
     7
100
AcDbLine
 10
192.8485336717859
 20
15.86370041827217
 30
0.0
 11
191.6763006887428
 21
13.8333333333332
 31
0.0
  0
LINE
  5
6D
102
{ACAD_REACTORS
330
9E
102
}
330
47
100
AcDbEntity
  8
1
  6
Continuous
 62
     7
100
AcDbLine
 10
188.6763006887428
 20
10.2700211480327
 30
0.0
 11
188.6763006887428
 21
14.92250016016737
 31
0.0
  0
LINE
  5
6E
102
{ACAD_REACTORS
330
9E
102
}
330
47
100
AcDbEntity
  8
1
  6
Continuous
 62
     7
100
AcDbLine
 10
189.3429673554094
 20
14.92250016016737
 30
0.0
 11
189.3429673554094
 21
10.27002114803281
 31
0.0
  0
LINE
  5
6F
102
{ACAD_REACTORS
330
9E
102
}
330
47
100
AcDbEntity
  8
1
  6
Continuous
 62
     7
100
AcDbLine
 10
189.3429673554094
 20
10.27002114803281
 30
0.0
 11
191.5095415065726
 21
9.02007452236171
 31
0.0
  0
LINE
  5
70
102
{ACAD_REACTORS
330
9E
102
}
330
47
100
AcDbEntity
  8
1
  6
Continuous
 62
     7
100
AcDbLine
 10
191.1763932042462
 20
8.44261746499581
 30
0.0
 11
189.0098190530831
 21
9.69256409066691
 31
0.0
  0
LINE
  5
71
102
{ACAD_REACTORS
330
9F
102
}
330
47
100
AcDbEntity
  8
1
  6
Continuous
 62
     7
100
AcDbLine
 10
188.009634022076
 20
14.1532693909366
 30
0.0
 11
188.009634022076
 21
11.0392519172633
 31
0.0
  0
LINE
  5
72
102
{ACAD_REACTORS
330
9F
102
}
330
47
100
AcDbEntity
  8
1
  6
Continuous
 62
     7
100
AcDbLine
 10
188.009634022076
 20
11.0392519172633
 30
0.0
 11
188.009634022076
 21
10.84673060906317
 31
0.0
  0
LINE
  5
73
102
{ACAD_REACTORS
330
9F
102
}
330
47
100
AcDbEntity
  8
1
  6
Continuous
 62
     7
100
AcDbLine
 10
187.3429673554094
 20
10.84673060906317
 30
0.0
 11
187.3429673554094
 21
14.1532693909366
 31
0.0
  0
LINE
  5
74
102
{ACAD_REACTORS
330
A0
102
}
330
47
100
AcDbEntity
  8
1
  6
Continuous
 62
     7
100
AcDbLine
 10
194.5095415065726
 20
15.21122868885016
 30
0.0
 11
195.8428748399059
 21
14.4419979196195
 31
0.0
  0
LINE
  5
75
102
{ACAD_REACTORS
330
A0
102
}
330
47
100
AcDbEntity
  8
1
  6
Continuous
 62
     7
100
AcDbLine
 10
195.5097265375794
 20
13.86454086225371
 30
0.0
 11
194.6763006887428
 21
14.345363467352
 31
0.0
  0
LINE
  5
76
102
{ACAD_REACTORS
330
A0
102
}
330
47
100
AcDbEntity
  8
1
  6
Continuous
 62
     7
100
AcDbLine
 10
194.6763006887428
 20
14.345363467352
 30
0.0
 11
194.6763006887428
 21
12.8333333333332
 31
0.0
  0
LINE
  5
77
102
{ACAD_REACTORS
330
A0
102
}
330
47
100
AcDbEntity
  8
1
  6
Continuous
 62
     7
100
AcDbLine
 10
194.6763006887428
 20
12.8333333333332
 30
0.0
 11
195.6763006887428
 21
12.8333333333332
 31
0.0
  0
LINE
  5
78
102
{ACAD_REACTORS
330
A0
102
}
330
47
100
AcDbEntity
  8
1
  6
Continuous
 62
     7
100
AcDbLine
 10
195.6763006887428
 20
12.16666666666657
 30
0.0
 11
194.6763006887428
 21
12.16666666666657
 31
0.0
  0
LINE
  5
79
102
{ACAD_REACTORS
330
A0
102
}
330
47
100
AcDbEntity
  8
1
  6
Continuous
 62
     7
100
AcDbLine
 10
194.6763006887428
 20
12.16666666666657
 30
0.0
 11
194.6763006887428
 21
10.654636532648
 31
0.0
  0
LINE
  5
7A
102
{ACAD_REACTORS
330
A0
102
}
330
47
100
AcDbEntity
  8
1
  6
Continuous
 62
     7
100
AcDbLine
 10
194.6763006887428
 20
10.654636532648
 30
0.0
 11
195.5097265375794
 21
11.1354591377463
 31
0.0
  0
LINE
  5
7B
102
{ACAD_REACTORS
330
A0
102
}
330
47
100
AcDbEntity
  8
1
  6
Continuous
 62
     7
100
AcDbLine
 10
195.8428748399059
 20
10.55800208038028
 30
0.0
 11
194.5095415065726
 21
9.78877131114967
 31
0.0
  0
LINE
  5
7C
330
47
100
AcDbEntity
  8
1
  6
Continuous
 62
     7
100
AcDbLine
 10
21.00000000000009
 20
25.0
 30
0.0
 11
205.0000000000001
 21
25.0
 31
0.0
  0
LINE
  5
7D
330
47
100
AcDbEntity
  8
1
  6
Continuous
 62
     7
100
AcDbLine
 10
28.00000000000009
 20
20.0
 30
0.0
 11
28.00000000000009
 21
25.0
 31
0.0
  0
LINE
  5
7E
330
47
100
AcDbEntity
  8
1
  6
Continuous
 62
     7
100
AcDbLine
 10
46.00000000000031
 20
20.0
 30
0.0
 11
46.00000000000031
 21
25.0
 31
0.0
  0
LINE
  5
7F
330
47
100
AcDbEntity
  8
1
  6
Continuous
 62
     7
100
AcDbLine
 10
21.00000000000009
 20
5.0
 30
0.0
 11
205.0000000000001
 21
5.0
 31
0.0
  0
LINE
  5
80
330
47
100
AcDbEntity
  8
1
  6
Continuous
 62
     7
100
AcDbLine
 10
21.00000000000009
 20
20.0
 30
0.0
 11
205.0000000000001
 21
20.0
 31
0.0
  0
ARC
  5
81
102
{ACAD_REACTORS
330
9D
102
}
330
47
100
AcDbEntity
  8
1
  6
Continuous
 62
     7
100
AcDbCircle
 10
190.2746002345512
 20
15.73121731203457
 30
0.0
 40
0.2649662124753982
100
AcDbArc
 50
29.99999999997542
 51
180.0
  0
ARC
  5
82
102
{ACAD_REACTORS
330
9D
102
}
330
47
100
AcDbEntity
  8
1
  6
Continuous
 62
     7
100
AcDbCircle
 10
190.3429673554094
 20
10.84758507263291
 30
0.0
 40
0.3333333333333997
100
AcDbArc
 50
180.0
 51
0.0
  0
ARC
  5
83
102
{ACAD_REACTORS
330
9D
102
}
330
47
100
AcDbEntity
  8
1
  6
Continuous
 62
     7
100
AcDbCircle
 10
193.009634022076
 20
9.30826907060191
 30
0.0
 40
0.3333333333332007
100
AcDbArc
 50
180.0
 51
0.0
  0
ARC
  5
84
102
{ACAD_REACTORS
330
9D
102
}
330
47
100
AcDbEntity
  8
1
  6
Continuous
 62
     7
100
AcDbCircle
 10
193.0780011429341
 20
15.73121731203457
 30
0.0
 40
0.2649662124752865
100
AcDbArc
 50
0.0
 51
150.0000000000154
  0
ARC
  5
85
102
{ACAD_REACTORS
330
9E
102
}
330
47
100
AcDbEntity
  8
1
  6
Continuous
 62
     7
100
AcDbCircle
 10
189.009634022076
 20
14.92250016016737
 30
0.0
 40
0.3333333333333997
100
AcDbArc
 50
0.0
 51
180.0
  0
ARC
  5
86
102
{ACAD_REACTORS
330
9E
102
}
330
47
100
AcDbEntity
  8
1
  6
Continuous
 62
     7
100
AcDbCircle
 10
191.3429673554094
 20
8.7313459936787
 30
0.0
 40
0.3333333333333567
100
AcDbArc
 50
240.0183606311536
 51
60.01836063116337
  0
ARC
  5
87
102
{ACAD_REACTORS
330
9F
102
}
330
47
100
AcDbEntity
  8
1
  6
Continuous
 62
     7
100
AcDbCircle
 10
187.6763006887428
 20
14.1532693909366
 30
0.0
 40
0.3333333333332007
100
AcDbArc
 50
0.0
 51
180.0
  0
ARC
  5
88
102
{ACAD_REACTORS
330
9F
102
}
330
47
100
AcDbEntity
  8
1
  6
Continuous
 62
     7
100
AcDbCircle
 10
187.6763006887428
 20
10.84673060906317
 30
0.0
 40
0.3333333333333997
100
AcDbArc
 50
180.0
 51
0.0
  0
ARC
  5
89
102
{ACAD_REACTORS
330
A0
102
}
330
47
100
AcDbEntity
  8
1
  6
Continuous
 62
     7
100
AcDbCircle
 10
195.6763006887428
 20
14.1532693909366
 30
0.0
 40
0.3333333333334515
100
AcDbArc
 50
240.0183606311235
 51
60.01836063116659
  0
ARC
  5
8A
102
{ACAD_REACTORS
330
A0
102
}
330
47
100
AcDbEntity
  8
1
  6
Continuous
 62
     7
100
AcDbCircle
 10
195.6763006887428
 20
12.5
 30
0.0
 40
0.3333333333334298
100
AcDbArc
 50
270.0
 51
90.0
  0
ARC
  5
8B
102
{ACAD_REACTORS
330
A0
102
}
330
47
100
AcDbEntity
  8
1
  6
Continuous
 62
     7
100
AcDbCircle
 10
195.6763006887428
 20
10.84673060906317
 30
0.0
 40
0.3333333333333094
100
AcDbArc
 50
299.9816393688342
 51
119.9816393688559
  0
ARC
  5
8C
102
{ACAD_REACTORS
330
9D
102
}
330
47
100
AcDbEntity
  8
1
  6
Continuous
 62
     7
100
AcDbCircle
 10
191.6763006887428
 20
12.8333333333332
 30
0.0
 40
0.1666666666666797
100
AcDbArc
 50
209.9999999999447
 51
330.0000000000064
  0
ARC
  5
8D
102
{ACAD_REACTORS
330
9E
102
}
330
47
100
AcDbEntity
  8
1
  6
Continuous
 62
     7
100
AcDbCircle
 10
189.3429673554094
 20
10.27002114803281
 30
0.0
 40
0.6666666666666003
100
AcDbArc
 50
180.0000000000095
 51
240.0183606311648
  0
ARC
  5
8E
330
47
100
AcDbEntity
  8
1
  6
Continuous
 62
     7
100
AcDbCircle
 10
183.3431524891829
 20
12.5
 30
0.0
 40
0.1666666666665834
100
AcDbArc
 50
119.9816393689047
 51
240.0183606311139
  0
ARC
  5
8F
330
47
100
AcDbEntity
  8
1
  6
Continuous
 62
     7
100
AcDbCircle
 10
200.0094488883027
 20
12.5
 30
0.0
 40
0.1666666666665779
100
AcDbArc
 50
299.9816393688268
 51
60.01836063115454
  0
ARC
  5
90
102
{ACAD_REACTORS
330
A0
102
}
330
47
100
AcDbEntity
  8
1
  6
Continuous
 62
     7
100
AcDbCircle
 10
194.3429673554094
 20
14.92250016016737
 30
0.0
 40
0.3333333333332644
100
AcDbArc
 50
60.01836063114445
 51
180.0
  0
ARC
  5
91
102
{ACAD_REACTORS
330
A0
102
}
330
47
100
AcDbEntity
  8
1
  6
Continuous
 62
     7
100
AcDbCircle
 10
194.3429673554094
 20
10.07749983983257
 30
0.0
 40
0.3333333333333997
100
AcDbArc
 50
180.0
 51
299.9816393688464
  0
MTEXT
  5
93
330
47
100
AcDbEntity
  8
1
 62
     7
100
AcDbMText
 10
36.00000000000009
 20
17.5
 30
0.0
 40
2.5
 41
0.0
 71
     5
 72
     1
  1
dimensions in mm
  7
CONVERTER_11
 73
     1
 44
0.60024009603842
  0
MTEXT
  5
95
330
47
100
AcDbEntity
  8
1
 62
     7
100
AcDbMText
 10
16.0
 20
151.4999999999998
 30
0.0
 40
4.0
 41
0.0
 71
     5
 72
     1
  1
Diritti riservati      All rights reserved
  7
CONVERTER_12
 11
0.0
 21
1.0
 31
0.0
 73
     1
 44
1.32052821128451
  0
MTEXT
  5
96
330
47
100
AcDbEntity
  8
1
 62
     7
100
AcDbMText
 10
22.00000000000009
 20
12.49999999999977
 30
0.0
 40
3.0
 41
0.0
 71
     4
 72
     1
  1
Date
  7
CONVERTER_12
 73
     1
 44
1.32052821128451
  0
MTEXT
  5
97
330
47
100
AcDbEntity
  8
1
 62
     7
100
AcDbMText
 10
32.60000000000019
 20
12.49999999999977
 30
0.0
 40
3.0
 41
0.0
 71
     4
 72
     1
  1
17/07/14
  7
CONVERTER_12
 73
     1
 44
1.32052821128451
  0
MTEXT
  5
98
330
47
100
AcDbEntity
  8
1
 62
     7
100
AcDbMText
 10
22.00000000000009
 20
7.49999999999977
 30
0.0
 40
3.0
 41
0.0
 71
     4
 72
     1
  1
Sign.
  7
CONVERTER_12
 73
     1
 44
1.32052821128451
  0
MTEXT
  5
99
330
47
100
AcDbEntity
  8
1
 62
     7
100
AcDbMText
 10
32.60000000000019
 20
7.49999999999977
 30
0.0
 40
3.0
 41
0.0
 71
     4
 72
     1
  1
Pezzimenti
  7
CONVERTER_12
 73
     1
 44
1.32052821128451
  0
MTEXT
  5
9A
330
47
100
AcDbEntity
  8
1
 62
     7
100
AcDbMText
 10
57.27630068874279
 20
12.5
 30
0.0
 40
4.5
 41
0.0
 71
     4
 72
     1
  1
TM 3418 P3\PCover for triple box
  7
CONVERTER_12
 73
     1
 44
0.90036014405762
  0
MTEXT
  5
9B
330
47
100
AcDbEntity
  8
1
 62
     7
100
AcDbMText
 10
169.6763006887428
 20
16.26063942075587
 30
0.0
 40
3.0
 41
0.0
 71
     5
 72
     1
  1
Scale
  7
CONVERTER_12
 73
     1
 44
1.32052821128451
  0
MTEXT
  5
9C
330
47
100
AcDbEntity
  8
1
 62
     7
100
AcDbMText
 10
169.6763006887428
 20
10.0606394207561
 30
0.0
 40
4.5
 41
0.0
 71
     5
 72
     1
  1
1:5
  7
CONVERTER_12
 73
     1
 44
1.32052821128451
  0
HATCH
  5
9D
330
47
100
AcDbEntity
  8
1
  6
Continuous
 62
     7
100
AcDbHatch
 10
0.0
 20
0.0
 30
0.0
210
0.0
220
0.0
230
1.0
  2
SOLID
 70
     1
 71
     1
 91
        1
 92
        1
 93
       16
 72
     2
 10
190.2746002345512
 20
15.73121731203457
 40
0.2649662124753982
 50
29.99999999997542
 51
180.0
 73
     1
 72
     1
 10
190.009634022076
 20
15.73121731203457
 11
190.009634022076
 21
12.5
 72
     1
 10
190.009634022076
 20
12.5
 11
190.009634022076
 21
10.84758507263291
 72
     2
 10
190.3429673554094
 20
10.84758507263291
 40
0.3333333333333997
 50
180.0
 51
360.0
 73
     1
 72
     1
 10
190.6763006887428
 20
10.84758507263291
 11
190.6763006887428
 21
12.5
 72
     1
 10
190.6763006887428
 20
12.5
 11
190.6763006887428
 21
14.2320508075689
 72
     1
 10
190.6763006887428
 20
14.2320508075689
 11
191.5319631214453
 21
12.75
 72
     2
 10
191.6763006887428
 20
12.8333333333332
 40
0.1666666666666797
 50
209.9999999999447
 51
330.0000000000064
 73
     1
 72
     1
 10
191.82063825604
 20
12.75
 11
192.6763006887428
 21
14.2320508075689
 72
     1
 10
192.6763006887428
 20
14.2320508075689
 11
192.6763006887428
 21
12.5
 72
     1
 10
192.6763006887428
 20
12.5
 11
192.6763006887428
 21
9.30826907060191
 72
     2
 10
193.009634022076
 20
9.30826907060191
 40
0.3333333333332007
 50
180.0
 51
360.0
 73
     1
 72
     1
 10
193.3429673554094
 20
9.30826907060191
 11
193.3429673554094
 21
15.73121731203457
 72
     2
 10
193.0780011429341
 20
15.73121731203457
 40
0.2649662124752865
 50
0.0
 51
150.0000000000154
 73
     1
 72
     1
 10
192.8485336717859
 20
15.86370041827217
 11
191.6763006887428
 21
13.8333333333332
 72
     1
 10
191.6763006887428
 20
13.8333333333332
 11
190.5040677056995
 21
15.86370041827217
 97
       16
330
6C
330
84
330
6B
330
83
330
6A
330
5E
330
5F
330
8C
330
60
330
61
330
69
330
82
330
68
330
66
330
81
330
67
 75
     0
 76
     1
 98
        1
 10
0.0
 20
0.0
  0
HATCH
  5
9E
330
47
100
AcDbEntity
  8
1
  6
Continuous
 62
     7
100
AcDbHatch
 10
0.0
 20
0.0
 30
0.0
210
0.0
220
0.0
230
1.0
  2
SOLID
 70
     1
 71
     1
 91
        1
 92
        1
 93
        7
 72
     1
 10
189.3429673554094
 20
14.92250016016737
 11
189.3429673554094
 21
10.27002114803281
 72
     1
 10
189.3429673554094
 20
10.27002114803281
 11
191.5095415065726
 21
9.02007452236171
 72
     2
 10
191.3429673554094
 20
8.731345993678701
 40
0.3333333333333567
 50
299.9816393688366
 51
479.9816393688463
 73
     0
 72
     1
 10
191.1763932042462
 20
8.442617464995806
 11
189.0098190530831
 21
9.692564090666906
 72
     2
 10
189.3429673554094
 20
10.27002114803281
 40
0.6666666666666003
 50
119.9816393688352
 51
179.9999999999905
 73
     0
 72
     1
 10
188.6763006887428
 20
10.2700211480327
 11
188.6763006887428
 21
14.92250016016737
 72
     2
 10
189.009634022076
 20
14.92250016016737
 40
0.3333333333333997
 50
180.0
 51
360.0
 73
     0
 97
        7
330
6E
330
6F
330
86
330
70
330
8D
330
6D
330
85
 75
     0
 76
     1
 98
        1
 10
0.0
 20
0.0
  0
HATCH
  5
9F
330
47
100
AcDbEntity
  8
1
  6
Continuous
 62
     7
100
AcDbHatch
 10
0.0
 20
0.0
 30
0.0
210
0.0
220
0.0
230
1.0
  2
SOLID
 70
     1
 71
     1
 91
        1
 92
        1
 93
        5
 72
     1
 10
188.009634022076
 20
14.1532693909366
 11
188.009634022076
 21
11.0392519172633
 72
     1
 10
188.009634022076
 20
11.0392519172633
 11
188.009634022076
 21
10.84673060906317
 72
     2
 10
187.6763006887428
 20
10.84673060906317
 40
0.3333333333333997
 50
0.0
 51
180.0
 73
     0
 72
     1
 10
187.3429673554094
 20
10.84673060906317
 11
187.3429673554094
 21
14.1532693909366
 72
     2
 10
187.6763006887428
 20
14.1532693909366
 40
0.3333333333332007
 50
180.0
 51
360.0
 73
     0
 97
        5
330
71
330
72
330
88
330
73
330
87
 75
     0
 76
     1
 98
        1
 10
0.0
 20
0.0
  0
HATCH
  5
A0
330
47
100
AcDbEntity
  8
1
  6
Continuous
 62
     7
100
AcDbHatch
 10
0.0
 20
0.0
 30
0.0
210
0.0
220
0.0
230
1.0
  2
SOLID
 70
     1
 71
     1
 91
        1
 92
        1
 93
       14
 72
     1
 10
195.5097265375794
 20
13.86454086225371
 11
194.6763006887428
 21
14.345363467352
 72
     1
 10
194.6763006887428
 20
14.345363467352
 11
194.6763006887428
 21
12.8333333333332
 72
     1
 10
194.6763006887428
 20
12.8333333333332
 11
195.6763006887428
 21
12.8333333333332
 72
     2
 10
195.6763006887428
 20
12.5
 40
0.3333333333334298
 50
270.0
 51
450.0
 73
     0
 72
     1
 10
195.6763006887428
 20
12.16666666666657
 11
194.6763006887428
 21
12.16666666666657
 72
     1
 10
194.6763006887428
 20
12.16666666666657
 11
194.6763006887428
 21
10.654636532648
 72
     1
 10
194.6763006887428
 20
10.654636532648
 11
195.5097265375794
 21
11.1354591377463
 72
     2
 10
195.6763006887428
 20
10.84673060906317
 40
0.3333333333333094
 50
240.0183606311441
 51
420.0183606311658
 73
     0
 72
     1
 10
195.8428748399059
 20
10.55800208038028
 11
194.5095415065726
 21
9.788771311149674
 72
     2
 10
194.3429673554094
 20
10.07749983983257
 40
0.3333333333333997
 50
60.01836063115361
 51
180.0
 73
     0
 72
     1
 10
194.009634022076
 20
10.07749983983257
 11
194.009634022076
 21
14.92250016016737
 72
     2
 10
194.3429673554094
 20
14.92250016016737
 40
0.3333333333332644
 50
180.0
 51
299.9816393688556
 73
     0
 72
     1
 10
194.5095415065726
 20
15.21122868885016
 11
195.8428748399059
 21
14.4419979196195
 72
     2
 10
195.6763006887428
 20
14.1532693909366
 40
0.3333333333334515
 50
299.9816393688334
 51
479.9816393688765
 73
     0
 97
       14
330
74
330
90
330
5D
330
91
330
7B
330
8B
330
7A
330
79
330
78
330
8A
330
77
330
76
330
75
330
89
 75
     0
 76
     1
 98
        1
 10
0.0
 20
0.0
  0
ENDBLK
  5
49
330
47
100
AcDbEntity
  8
0
100
AcDbBlockEnd
  0
BLOCK
  5
4C
330
4A
100
AcDbEntity
  8
0
100
AcDbBlockBegin
  2
A4
 70
     0
 10
1050.0
 20
0.00000000000091
 30
0.0
  3
A4
  1

  0
INSERT
  5
4B
330
4A
100
AcDbEntity
  8
1
100
AcDbBlockReference
  2
_formato_A4
 10
1050.0
 20
0.0
 30
0.0
 41
5.0
 42
5.0
 43
5.0
  0
ENDBLK
  5
4D
330
4A
100
AcDbEntity
  8
0
100
AcDbBlockEnd
  0
BLOCK
  5
289
330
281
100
AcDbEntity
  8
0
100
AcDbBlockBegin
  2
*D3
 70
     1
 10
0.0
 20
0.0
 30
0.0
  3
*D3
  1

  0
LINE
  5
282
330
281
100
AcDbEntity
  8
1
  6
Continuous
 62
     2
100
AcDbLine
 10
253.2988408134193
 20
935.7932653158373
 30
0.0
 11
253.2988408134193
 21
751.7932653158282
 31
0.0
  0
LINE
  5
283
330
281
100
AcDbEntity
  8
1
  6
Continuous
 62
     2
100
AcDbLine
 10
307.7977746795733
 20
935.7932653158373
 30
0.0
 11
248.2988408134193
 21
935.7932653158373
 31
0.0
  0
LINE
  5
284
330
281
100
AcDbEntity
  8
1
  6
Continuous
 62
     2
100
AcDbLine
 10
307.7964420882689
 20
751.7932653158282
 30
0.0
 11
248.2988408134193
 21
751.7932653158282
 31
0.0
  0
SOLID
  5
285
330
281
100
AcDbEntity
  8
1
 62
     2
100
AcDbTrace
 10
255.2736282772302
 20
920.7932653158373
 30
0.0
 11
251.3240533496084
 21
920.7932653158373
 31
0.0
 12
253.2988408134193
 22
935.7932653158373
 32
0.0
 13
253.2988408134193
 23
935.7932653158373
 33
0.0
  0
SOLID
  5
286
330
281
100
AcDbEntity
  8
1
 62
     2
100
AcDbTrace
 10
251.3240533496084
 20
766.7932653158282
 30
0.0
 11
255.2736282772302
 21
766.7932653158282
 31
0.0
 12
253.2988408134193
 22
751.7932653158282
 32
0.0
 13
253.2988408134193
 23
751.7932653158282
 33
0.0
  0
MTEXT
  5
288
330
281
100
AcDbEntity
  8
1
 62
     4
100
AcDbMText
 10
243.2988408134193
 20
827.2932653158327
 30
0.0
 40
15.0
 41
0.0
 71
     7
 72
     1
  1
184
  7
CONVERTER_13
 11
0.0
 21
1.0
 31
0.0
 73
     1
 44
0.60024009603842
  0
ENDBLK
  5
28A
330
281
100
AcDbEntity
  8
0
100
AcDbBlockEnd
  0
BLOCK
  5
295
330
28D
100
AcDbEntity
  8
0
100
AcDbBlockBegin
  2
*D4
 70
     1
 10
0.0
 20
0.0
 30
0.0
  3
*D4
  1

  0
LINE
  5
28E
330
28D
100
AcDbEntity
  8
1
  6
Continuous
 62
     2
100
AcDbLine
 10
811.3713163707396
 20
691.7932653158281
 30
0.0
 11
857.8713163708464
 21
691.7932653158281
 31
0.0
  0
LINE
  5
28F
330
28D
100
AcDbEntity
  8
1
  6
Continuous
 62
     2
100
AcDbLine
 10
857.8713163708464
 20
691.7932653158281
 30
0.0
 11
906.746316370793
 21
691.7932653158281
 31
0.0
  0
LINE
  5
290
330
28D
100
AcDbEntity
  8
1
  6
Continuous
 62
     2
100
AcDbLine
 10
811.3713163707396
 20
749.2932653158282
 30
0.0
 11
811.3713163707396
 21
686.7932653158281
 31
0.0
  0
LINE
  5
291
330
28D
100
AcDbEntity
  8
1
  6
Continuous
 62
     2
100
AcDbLine
 10
857.8713163708464
 20
768.1039140754527
 30
0.0
 11
857.8713163708464
 21
686.7932653158281
 31
0.0
  0
SOLID
  5
292
330
28D
100
AcDbEntity
  8
1
 62
     2
100
AcDbTrace
 10
826.3713163707396
 20
693.768052779639
 30
0.0
 11
826.3713163707396
 21
689.8184778520172
 31
0.0
 12
811.3713163707396
 22
691.7932653158281
 32
0.0
 13
811.3713163707396
 23
691.7932653158281
 33
0.0
  0
SOLID
  5
293
330
28D
100
AcDbEntity
  8
1
 62
     2
100
AcDbTrace
 10
842.8713163708464
 20
689.8184778520172
 30
0.0
 11
842.8713163708464
 21
693.768052779639
 31
0.0
 12
857.8713163708464
 22
691.7932653158281
 32
0.0
 13
857.8713163708464
 23
691.7932653158281
 33
0.0
  0
MTEXT
  5
294
330
28D
100
AcDbEntity
  8
1
 62
     4
100
AcDbMText
 10
865.496316370793
 20
703.2932653158281
 30
0.0
 40
15.0
 41
0.0
 71
     7
 72
     1
  1
46,5
  7
CONVERTER_13
 11
0.9999999999970619
 21
2.424068405545306E-6
 31
0.0
 73
     1
 44
0.60024009603842
  0
ENDBLK
  5
296
330
28D
100
AcDbEntity
  8
0
100
AcDbBlockEnd
  0
BLOCK
  5
2A0
330
299
100
AcDbEntity
  8
0
100
AcDbBlockBegin
  2
*D5
 70
     1
 10
0.0
 20
0.0
 30
0.0
  3
*D5
  1

  0
LINE
  5
29A
330
299
100
AcDbEntity
  8
1
  6
Continuous
 62
     2
100
AcDbLine
 10
648.2988408134822
 20
691.7932653158282
 30
0.0
 11
303.2988408134402
 21
691.7932653158282
 31
0.0
  0
LINE
  5
29B
330
299
100
AcDbEntity
  8
1
  6
Continuous
 62
     2
100
AcDbLine
 10
648.2988408134822
 20
756.2908665906571
 30
0.0
 11
648.2988408134822
 21
686.7932653158282
 31
0.0
  0
LINE
  5
29C
330
299
100
AcDbEntity
  8
1
  6
Continuous
 62
     2
100
AcDbLine
 10
303.2988408134402
 20
756.2908665906571
 30
0.0
 11
303.2988408134402
 21
686.7932653158282
 31
0.0
  0
SOLID
  5
29D
330
299
100
AcDbEntity
  8
1
 62
     2
100
AcDbTrace
 10
633.2988408134822
 20
689.8184778520173
 30
0.0
 11
633.2988408134822
 21
693.7680527796391
 31
0.0
 12
648.2988408134822
 22
691.7932653158282
 32
0.0
 13
648.2988408134822
 23
691.7932653158282
 33
0.0
  0
SOLID
  5
29E
330
299
100
AcDbEntity
  8
1
 62
     2
100
AcDbTrace
 10
318.2988408134402
 20
693.7680527796391
 30
0.0
 11
318.2988408134402
 21
689.8184778520173
 31
0.0
 12
303.2988408134402
 22
691.7932653158282
 32
0.0
 13
303.2988408134402
 23
691.7932653158282
 33
0.0
  0
MTEXT
  5
29F
330
299
100
AcDbEntity
  8
1
 62
     4
100
AcDbMText
 10
457.7988408134612
 20
701.7932653158282
 30
0.0
 40
15.0
 41
0.0
 71
     7
 72
     1
  1
345
  7
CONVERTER_13
 11
0.9999999999970619
 21
2.424068405545306E-6
 31
0.0
 73
     1
 44
0.60024009603842
  0
ENDBLK
  5
2A1
330
299
100
AcDbEntity
  8
0
100
AcDbBlockEnd
  0
ENDSEC
  0
SECTION
  2
ENTITIES
  0
INSERT
  5
4E
330
1F
100
AcDbEntity
  8
0
100
AcDbBlockReference
  2
A4
 10
1050.0
 20
0.00000000000091
 30
0.0
 41
1.0
 42
1.0
 43
1.0
  0
LINE
  5
A1
330
1F
100
AcDbEntity
  8
0
  6
Continuous
 62
     7
100
AcDbLine
 10
811.371316370869
 20
933.2932653158027
 30
0.0
 11
811.3713163708651
 21
935.7932653158466
 31
0.0
  0
LINE
  5
A2
330
1F
100
AcDbEntity
  8
0
  6
Continuous
 62
     7
100
AcDbLine
 10
811.371316370864
 20
928.7943314497518
 30
0.0
 11
811.371316370868
 21
928.7932653158028
 31
0.0
  0
LINE
  5
A3
330
1F
100
AcDbEntity
  8
0
  6
Continuous
 62
     7
100
AcDbLine
 10
811.3713163708921
 20
918.9627546660348
 30
0.0
 11
811.371316370868
 21
909.7932653158209
 31
0.0
  0
LINE
  5
A4
330
1F
100
AcDbEntity
  8
0
  6
Continuous
 62
     7
100
AcDbLine
 10
811.371316370864
 20
924.9123230276923
 30
0.0
 11
811.371316370864
 21
922.4632878141877
 31
0.0
  0
LINE
  5
A5
330
1F
100
AcDbEntity
  8
0
  6
Continuous
 62
     7
100
AcDbLine
 10
811.371316370868
 20
909.7932653158209
 30
0.0
 11
811.3713163708921
 21
902.6237759656508
 31
0.0
  0
LINE
  5
A6
330
1F
100
AcDbEntity
  8
0
  6
Continuous
 62
     7
100
AcDbLine
 10
811.3713163708921
 20
918.9627546660348
 30
0.0
 11
811.371316370864
 21
922.4632878141877
 31
0.0
  0
LINE
  5
A7
330
1F
100
AcDbEntity
  8
0
  6
Continuous
 62
     7
100
AcDbLine
 10
811.371316370869
 20
754.2932653158495
 30
0.0
 11
811.371316370866
 21
901.7932653158211
 31
0.0
  0
LINE
  5
A8
330
1F
100
AcDbEntity
  8
0
  6
Continuous
 62
     7
100
AcDbLine
 10
811.371316370866
 20
901.7932653158211
 30
0.0
 11
811.3713163708921
 21
902.6237759656508
 31
0.0
  0
LINE
  5
A9
330
1F
100
AcDbEntity
  8
0
  6
Continuous
 62
     7
100
AcDbLine
 10
811.371316370868
 20
928.7932653158028
 30
0.0
 11
811.371316370864
 21
924.9123230276923
 31
0.0
  0
LINE
  5
AA
330
1F
100
AcDbEntity
  8
0
  6
Continuous
 62
     7
100
AcDbLine
 10
811.371316370869
 20
754.2932653158495
 30
0.0
 11
811.371316370896
 21
748.2932653158534
 31
0.0
  0
LINE
  5
AB
330
1F
100
AcDbEntity
  8
0
  6
Continuous
 62
     7
100
AcDbLine
 10
811.371316370864
 20
928.7943314497518
 30
0.0
 11
811.371316370869
 21
933.2932653158027
 31
0.0
  0
LINE
  5
AC
330
1F
100
AcDbEntity
  8
0
  6
Continuous
 62
     7
100
AcDbLine
 10
310.2977746795732
 20
935.7932653158373
 30
0.0
 11
641.2999069473583
 21
935.7932653158562
 31
0.0
  0
LINE
  5
AD
330
1F
100
AcDbEntity
  8
0
  6
Continuous
 62
     2
100
AcDbLine
 10
850.5743032338171
 20
774.8548030454848
 30
0.0
 11
850.5743032338171
 21
912.7317275861831
 31
0.0
  0
LINE
  5
AE
330
1F
100
AcDbEntity
  8
0
  6
Continuous
 62
     2
100
AcDbLine
 10
627.2488408134502
 20
841.2932881023371
 30
0.0
 11
624.2488408134502
 21
841.2932881023371
 31
0.0
  0
LINE
  5
AF
330
1F
100
AcDbEntity
  8
0
  6
Continuous
 62
     2
100
AcDbLine
 10
627.2488408134502
 20
838.2932881023371
 30
0.0
 11
627.2488408134502
 21
841.2932881023371
 31
0.0
  0
LINE
  5
B0
330
1F
100
AcDbEntity
  8
0
  6
Continuous
 62
     2
100
AcDbLine
 10
624.2488408134502
 20
838.2932881023371
 30
0.0
 11
627.2488408134502
 21
838.2932881023371
 31
0.0
  0
LINE
  5
B1
330
1F
100
AcDbEntity
  8
0
  6
Continuous
 62
     2
100
AcDbLine
 10
624.2488408134502
 20
841.2932881023371
 30
0.0
 11
624.2488408134502
 21
838.2932881023371
 31
0.0
  0
LINE
  5
B2
330
1F
100
AcDbEntity
  8
0
  6
Continuous
 62
     2
100
AcDbLine
 10
628.7488408134502
 20
842.7932881023371
 30
0.0
 11
622.7488408134502
 21
842.7932881023371
 31
0.0
  0
LINE
  5
B3
330
1F
100
AcDbEntity
  8
0
  6
Continuous
 62
     2
100
AcDbLine
 10
628.7488408134502
 20
836.7932881023371
 30
0.0
 11
628.7488408134502
 21
842.7932881023371
 31
0.0
  0
LINE
  5
B4
330
1F
100
AcDbEntity
  8
0
  6
Continuous
 62
     2
100
AcDbLine
 10
622.7488408134502
 20
836.7932881023371
 30
0.0
 11
628.7488408134502
 21
836.7932881023371
 31
0.0
  0
LINE
  5
B5
330
1F
100
AcDbEntity
  8
0
  6
Continuous
 62
     2
100
AcDbLine
 10
622.7488408134502
 20
842.7932881023371
 30
0.0
 11
622.7488408134502
 21
836.7932881023371
 31
0.0
  0
LINE
  5
B6
330
1F
100
AcDbEntity
  8
0
  6
Continuous
 62
     7
100
AcDbLine
 10
434.5605139078361
 20
924.2606724401495
 30
0.0
 11
628.5021187651491
 21
924.2606724401501
 31
0.0
  0
LINE
  5
B7
330
1F
100
AcDbEntity
  8
0
  6
Continuous
 62
     7
100
AcDbLine
 10
323.0955627897313
 20
924.2606724401497
 30
0.0
 11
434.5605139078361
 21
924.2606724401495
 31
0.0
  0
LINE
  5
B8
330
1F
100
AcDbEntity
  8
0
  6
Continuous
 62
     7
100
AcDbLine
 10
628.5021188371582
 20
763.325858191525
 30
0.0
 11
529.5605138899823
 21
763.3258581915181
 31
0.0
  0
LINE
  5
B9
330
1F
100
AcDbEntity
  8
0
  6
Continuous
 62
     7
100
AcDbLine
 10
529.5605138899823
 20
763.3258581915181
 30
0.0
 11
323.0955627897313
 21
763.325858191525
 31
0.0
  0
LINE
  5
BA
330
1F
100
AcDbEntity
  8
0
  6
Continuous
 62
     2
100
AcDbLine
 10
625.4538569404372
 20
752.0813104531129
 30
0.0
 11
625.8069269389623
 21
756.5725705906726
 31
0.0
  0
LINE
  5
BB
330
1F
100
AcDbEntity
  8
0
  6
Continuous
 62
     2
100
AcDbLine
 10
625.8069269389623
 20
931.0139600409952
 30
0.0
 11
625.4538569404372
 21
935.5052201785552
 31
0.0
  0
LINE
  5
BC
330
1F
100
AcDbEntity
  8
0
  6
Continuous
 62
     2
100
AcDbLine
 10
325.7907546879262
 20
756.5725705906726
 30
0.0
 11
326.1438246864523
 21
752.0813104531129
 31
0.0
  0
LINE
  5
BD
330
1F
100
AcDbEntity
  8
0
  6
Continuous
 62
     2
100
AcDbLine
 10
313.0390786489663
 20
775.1752919610108
 30
0.0
 11
305.0454279462672
 21
775.1752919610108
 31
0.0
  0
LINE
  5
BE
330
1F
100
AcDbEntity
  8
0
  6
Continuous
 62
     2
100
AcDbLine
 10
323.0955627897313
 20
770.6039140752187
 30
0.0
 11
323.0955627897313
 21
763.325858191525
 31
0.0
  0
LINE
  5
BF
330
1F
100
AcDbEntity
  8
0
  6
Continuous
 62
     2
100
AcDbLine
 10
305.0454279462672
 20
775.1752919610108
 30
0.0
 11
305.0454276464452
 21
775.1752919610108
 31
0.0
  0
LINE
  5
C0
330
1F
100
AcDbEntity
  8
0
  6
Continuous
 62
     7
100
AcDbLine
 10
312.7988408134672
 20
766.4241949236814
 30
0.0
 11
312.7988408134672
 21
766.4243556473045
 31
0.0
  0
LINE
  5
C1
330
1F
100
AcDbEntity
  8
0
  6
Continuous
 62
     7
100
AcDbLine
 10
318.0154951029283
 20
760.6553884482344
 30
0.0
 11
318.0613872996503
 21
761.2932653158355
 31
0.0
  0
LINE
  5
C2
330
1F
100
AcDbEntity
  8
0
  6
Continuous
 62
     2
100
AcDbLine
 10
326.1438246864511
 20
935.5052201785552
 30
0.0
 11
325.7907546879262
 21
931.0139600409952
 31
0.0
  0
LINE
  5
C3
330
1F
100
AcDbEntity
  8
0
  6
Continuous
 62
     2
100
AcDbLine
 10
628.5021188371582
 20
770.6039140752265
 30
0.0
 11
628.5021188371582
 21
763.325858191525
 31
0.0
  0
LINE
  5
C4
330
1F
100
AcDbEntity
  8
0
  6
Continuous
 62
     2
100
AcDbLine
 10
638.5586029779233
 20
775.1752919610108
 30
0.0
 11
638.5522539804433
 21
775.1752919610108
 31
0.0
  0
LINE
  5
C5
330
1F
100
AcDbEntity
  8
0
  6
Continuous
 62
     2
100
AcDbLine
 10
638.5586029779233
 20
775.1752919610108
 30
0.0
 11
638.6943582073193
 21
767.1743639240533
 31
0.0
  0
LINE
  5
C6
330
1F
100
AcDbEntity
  8
0
  6
Continuous
 62
     2
100
AcDbLine
 10
638.5586029779233
 20
912.4112386706573
 30
0.0
 11
646.5522536806222
 21
912.4112386706573
 31
0.0
  0
LINE
  5
C7
330
1F
100
AcDbEntity
  8
0
  6
Continuous
 62
     2
100
AcDbLine
 10
638.6943582073193
 20
920.4121667076145
 30
0.0
 11
638.5586029779233
 21
912.4112386706573
 31
0.0
  0
LINE
  5
C8
330
1F
100
AcDbEntity
  8
0
  6
Continuous
 62
     2
100
AcDbLine
 10
628.5021188371582
 20
916.9826165564491
 30
0.0
 11
628.5021188371582
 21
924.2606724401431
 31
0.0
  0
LINE
  5
C9
330
1F
100
AcDbEntity
  8
0
  6
Continuous
 62
     2
100
AcDbLine
 10
646.5522536806222
 20
775.1752919610108
 30
0.0
 11
638.5586029779233
 21
775.1752919610108
 31
0.0
  0
LINE
  5
CA
330
1F
100
AcDbEntity
  8
0
  6
Continuous
 62
     2
100
AcDbLine
 10
646.5522539804433
 20
775.1752919610108
 30
0.0
 11
646.5522536806222
 21
775.1752919610108
 31
0.0
  0
LINE
  5
CB
330
1F
100
AcDbEntity
  8
0
  6
Continuous
 62
     2
100
AcDbLine
 10
646.5522536806222
 20
912.4112386706573
 30
0.0
 11
646.5522539804433
 21
912.4112386706573
 31
0.0
  0
LINE
  5
CC
330
1F
100
AcDbEntity
  8
0
  6
Continuous
 62
     2
100
AcDbLine
 10
323.0955627897313
 20
916.9826165564491
 30
0.0
 11
628.5021188371582
 21
916.9826165564491
 31
0.0
  0
LINE
  5
CD
330
1F
100
AcDbEntity
  8
0
  6
Continuous
 62
     7
100
AcDbLine
 10
326.1438246864511
 20
935.5052201785552
 30
0.0
 11
625.4538569404372
 21
935.5052201785796
 31
0.0
  0
LINE
  5
CE
330
1F
100
AcDbEntity
  8
0
  6
Continuous
 62
     7
100
AcDbLine
 10
310.2964420882693
 20
935.7932653158398
 30
0.0
 11
641.3012395386202
 21
935.7932653158398
 31
0.0
  0
LINE
  5
CF
330
1F
100
AcDbEntity
  8
0
  6
Continuous
 62
     7
100
AcDbLine
 10
633.6679112055763
 20
928.1226691812806
 30
0.0
 11
633.5362943272391
 21
926.2932653158323
 31
0.0
  0
LINE
  5
D0
330
1F
100
AcDbEntity
  8
0
  6
Continuous
 62
     7
100
AcDbLine
 10
646.5522539804433
 20
912.4112386706573
 30
0.0
 11
646.5522539804433
 21
775.1752919610108
 31
0.0
  0
LINE
  5
D1
330
1F
100
AcDbEntity
  8
0
  6
Continuous
 62
     7
100
AcDbLine
 10
648.2988408134822
 20
928.7956640410108
 30
0.0
 11
648.2988408134822
 21
758.7908665906571
 31
0.0
  0
LINE
  5
D2
330
1F
100
AcDbEntity
  8
0
  6
Continuous
 62
     7
100
AcDbLine
 10
633.5362943272391
 20
761.2932653158357
 30
0.0
 11
633.6679112055763
 21
759.4638614503876
 31
0.0
  0
LINE
  5
D3
330
1F
100
AcDbEntity
  8
0
  6
Continuous
 62
     7
100
AcDbLine
 10
641.3012395386202
 20
751.7932653158282
 30
0.0
 11
310.2964420882693
 21
751.7932653158282
 31
0.0
  0
LINE
  5
D4
330
1F
100
AcDbEntity
  8
0
  6
Continuous
 62
     2
100
AcDbLine
 10
628.5021188371582
 20
770.6039140752265
 30
0.0
 11
323.0955627897313
 21
770.6039140752265
 31
0.0
  0
LINE
  5
D5
330
1F
100
AcDbEntity
  8
0
  6
Continuous
 62
     7
100
AcDbLine
 10
326.1438246864523
 20
752.0813104531129
 30
0.0
 11
625.4538569404372
 21
752.0813104531129
 31
0.0
  0
LINE
  5
D6
330
1F
100
AcDbEntity
  8
0
  6
Continuous
 62
     7
100
AcDbLine
 10
303.2988408134402
 20
758.7908665906571
 30
0.0
 11
303.2988408134402
 21
928.7956640410108
 31
0.0
  0
LINE
  5
D7
330
1F
100
AcDbEntity
  8
0
  6
Continuous
 62
     7
100
AcDbLine
 10
305.0454279462672
 20
775.1752919610108
 30
0.0
 11
305.0454279462672
 21
912.4112386706573
 31
0.0
  0
LINE
  5
D8
330
1F
100
AcDbEntity
  8
0
  6
Continuous
 62
     2
100
AcDbLine
 10
337.0390786489402
 20
909.5932663628463
 30
0.0
 11
337.0390786489402
 21
777.9932653158337
 31
0.0
  0
LINE
  5
D9
330
1F
100
AcDbEntity
  8
0
  6
Continuous
 62
     2
100
AcDbLine
 10
334.6390786489403
 20
909.5932663628463
 30
0.0
 11
334.6390786489403
 21
777.9932653158337
 31
0.0
  0
LINE
  5
DA
330
1F
100
AcDbEntity
  8
0
  6
Continuous
 62
     2
100
AcDbLine
 10
332.2390786489402
 20
909.5932663628463
 30
0.0
 11
332.2390786489402
 21
777.9932653158337
 31
0.0
  0
LINE
  5
DB
330
1F
100
AcDbEntity
  8
0
  6
Continuous
 62
     2
100
AcDbLine
 10
329.8390786489401
 20
909.5932663628463
 30
0.0
 11
329.8390786489401
 21
777.9932653158342
 31
0.0
  0
LINE
  5
DC
330
1F
100
AcDbEntity
  8
0
  6
Continuous
 62
     2
100
AcDbLine
 10
327.4390786489391
 20
909.5932663628463
 30
0.0
 11
327.4390786489391
 21
777.9932653158337
 31
0.0
  0
LINE
  5
DD
330
1F
100
AcDbEntity
  8
0
  6
Continuous
 62
     2
100
AcDbLine
 10
325.0390786489393
 20
909.5932663628463
 30
0.0
 11
325.0390786489393
 21
777.9932653158337
 31
0.0
  0
LINE
  5
DE
330
1F
100
AcDbEntity
  8
0
  6
Continuous
 62
     2
100
AcDbLine
 10
322.6390786489403
 20
909.5932663628463
 30
0.0
 11
322.6390786489403
 21
777.9932653158337
 31
0.0
  0
LINE
  5
DF
330
1F
100
AcDbEntity
  8
0
  6
Continuous
 62
     2
100
AcDbLine
 10
320.2390786489402
 20
909.5932663628463
 30
0.0
 11
320.2390786489402
 21
777.9932653158337
 31
0.0
  0
LINE
  5
E0
330
1F
100
AcDbEntity
  8
0
  6
Continuous
 62
     2
100
AcDbLine
 10
317.8390786489401
 20
909.5932663628463
 30
0.0
 11
317.8390786489401
 21
777.9932653158337
 31
0.0
  0
LINE
  5
E1
330
1F
100
AcDbEntity
  8
0
  6
Continuous
 62
     2
100
AcDbLine
 10
315.4390786489391
 20
909.5932663628463
 30
0.0
 11
315.4390786489391
 21
777.9932653158337
 31
0.0
  0
LINE
  5
E2
330
1F
100
AcDbEntity
  8
0
  6
Continuous
 62
     2
100
AcDbLine
 10
313.0390786489393
 20
909.5932663628463
 30
0.0
 11
313.0390786489393
 21
777.9932653158337
 31
0.0
  0
LINE
  5
E3
330
1F
100
AcDbEntity
  8
0
  6
Continuous
 62
     2
100
AcDbLine
 10
337.4390786489403
 20
777.9932653158337
 30
0.0
 11
337.4390786489403
 21
909.5932663628463
 31
0.0
  0
LINE
  5
E4
330
1F
100
AcDbEntity
  8
0
  6
Continuous
 62
     2
100
AcDbLine
 10
335.0390786489402
 20
777.9932653158337
 30
0.0
 11
335.0390786489402
 21
909.5932663628463
 31
0.0
  0
LINE
  5
E5
330
1F
100
AcDbEntity
  8
0
  6
Continuous
 62
     2
100
AcDbLine
 10
332.6390786489403
 20
777.9932653158337
 30
0.0
 11
332.6390786489403
 21
909.5932663628463
 31
0.0
  0
LINE
  5
E6
330
1F
100
AcDbEntity
  8
0
  6
Continuous
 62
     2
100
AcDbLine
 10
330.2390786489402
 20
777.9932653158337
 30
0.0
 11
330.2390786489402
 21
909.5932663628463
 31
0.0
  0
LINE
  5
E7
330
1F
100
AcDbEntity
  8
0
  6
Continuous
 62
     2
100
AcDbLine
 10
327.8390786489401
 20
777.9932653158337
 30
0.0
 11
327.8390786489401
 21
909.5932663628463
 31
0.0
  0
LINE
  5
E8
330
1F
100
AcDbEntity
  8
0
  6
Continuous
 62
     2
100
AcDbLine
 10
325.4390786489391
 20
777.9932653158337
 30
0.0
 11
325.4390786489391
 21
909.5932663628463
 31
0.0
  0
LINE
  5
E9
330
1F
100
AcDbEntity
  8
0
  6
Continuous
 62
     2
100
AcDbLine
 10
323.0390786489393
 20
777.9932653158337
 30
0.0
 11
323.0390786489393
 21
909.5932663628463
 31
0.0
  0
LINE
  5
EA
330
1F
100
AcDbEntity
  8
0
  6
Continuous
 62
     2
100
AcDbLine
 10
320.6390786489403
 20
777.9932653158337
 30
0.0
 11
320.6390786489392
 21
909.5932663628463
 31
0.0
  0
LINE
  5
EB
330
1F
100
AcDbEntity
  8
0
  6
Continuous
 62
     2
100
AcDbLine
 10
318.2390786489402
 20
777.9932653158337
 30
0.0
 11
318.2390786489402
 21
909.5932663628463
 31
0.0
  0
LINE
  5
EC
330
1F
100
AcDbEntity
  8
0
  6
Continuous
 62
     2
100
AcDbLine
 10
315.8390786489401
 20
777.9932653158337
 30
0.0
 11
315.8390786489401
 21
909.5932663628463
 31
0.0
  0
LINE
  5
ED
330
1F
100
AcDbEntity
  8
0
  6
Continuous
 62
     2
100
AcDbLine
 10
313.4390786489391
 20
777.9932653158337
 30
0.0
 11
313.4390786489391
 21
909.5932663628463
 31
0.0
  0
LINE
  5
EE
330
1F
100
AcDbEntity
  8
0
  6
Continuous
 62
     2
100
AcDbLine
 10
313.0390786489393
 20
777.7934147656003
 30
0.0
 11
313.0390786489663
 21
777.7934147656003
 31
0.0
  0
LINE
  5
EF
330
1F
100
AcDbEntity
  8
0
  6
Continuous
 62
     2
100
AcDbLine
 10
634.5586029779492
 20
825.593288102337
 30
0.0
 11
634.5586029779492
 21
777.9932653158337
 31
0.0
  0
LINE
  5
F0
330
1F
100
AcDbEntity
  8
0
  6
Continuous
 62
     2
100
AcDbLine
 10
632.1586029779492
 20
825.593288102337
 30
0.0
 11
632.1586029779492
 21
777.9932653158337
 31
0.0
  0
LINE
  5
F1
330
1F
100
AcDbEntity
  8
0
  6
Continuous
 62
     2
100
AcDbLine
 10
629.7586029779493
 20
825.593288102337
 30
0.0
 11
629.7586029779493
 21
777.9932653158337
 31
0.0
  0
LINE
  5
F2
330
1F
100
AcDbEntity
  8
0
  6
Continuous
 62
     2
100
AcDbLine
 10
627.3586029779492
 20
825.593288102337
 30
0.0
 11
627.3586029779492
 21
777.9932653158337
 31
0.0
  0
LINE
  5
F3
330
1F
100
AcDbEntity
  8
0
  6
Continuous
 62
     2
100
AcDbLine
 10
624.9586029779493
 20
825.593288102337
 30
0.0
 11
624.9586029779493
 21
777.9932653158337
 31
0.0
  0
LINE
  5
F4
330
1F
100
AcDbEntity
  8
0
  6
Continuous
 62
     2
100
AcDbLine
 10
622.5586029779492
 20
825.593288102337
 30
0.0
 11
622.5586029779492
 21
777.9932653158337
 31
0.0
  0
LINE
  5
F5
330
1F
100
AcDbEntity
  8
0
  6
Continuous
 62
     2
100
AcDbLine
 10
620.1586029779492
 20
825.593288102337
 30
0.0
 11
620.1586029779492
 21
777.9932653158337
 31
0.0
  0
LINE
  5
F6
330
1F
100
AcDbEntity
  8
0
  6
Continuous
 62
     2
100
AcDbLine
 10
617.7586029779493
 20
825.593288102337
 30
0.0
 11
617.7586029779493
 21
777.9932653158337
 31
0.0
  0
LINE
  5
F7
330
1F
100
AcDbEntity
  8
0
  6
Continuous
 62
     2
100
AcDbLine
 10
615.3586029779492
 20
825.593288102337
 30
0.0
 11
615.3586029779492
 21
777.9932653158337
 31
0.0
  0
LINE
  5
F8
330
1F
100
AcDbEntity
  8
0
  6
Continuous
 62
     2
100
AcDbLine
 10
637.3586029779492
 20
777.9932653158342
 30
0.0
 11
637.3586029779492
 21
909.5932663628463
 31
0.0
  0
LINE
  5
F9
330
1F
100
AcDbEntity
  8
0
  6
Continuous
 62
     2
100
AcDbLine
 10
634.9586029779493
 20
777.9932653158342
 30
0.0
 11
634.9586029779493
 21
825.5932881023373
 31
0.0
  0
LINE
  5
FA
330
1F
100
AcDbEntity
  8
0
  6
Continuous
 62
     2
100
AcDbLine
 10
632.5586029779502
 20
777.9932653158342
 30
0.0
 11
632.5586029779502
 21
825.5932881023373
 31
0.0
  0
LINE
  5
FB
330
1F
100
AcDbEntity
  8
0
  6
Continuous
 62
     2
100
AcDbLine
 10
630.1586029779492
 20
777.9932653158342
 30
0.0
 11
630.1586029779492
 21
825.5932881023373
 31
0.0
  0
LINE
  5
FC
330
1F
100
AcDbEntity
  8
0
  6
Continuous
 62
     2
100
AcDbLine
 10
627.7586029779493
 20
777.9932653158342
 30
0.0
 11
627.7586029779493
 21
825.5932881023373
 31
0.0
  0
LINE
  5
FD
330
1F
100
AcDbEntity
  8
0
  6
Continuous
 62
     2
100
AcDbLine
 10
625.3586029779492
 20
777.9932653158342
 30
0.0
 11
625.3586029779492
 21
825.5932881023373
 31
0.0
  0
LINE
  5
FE
330
1F
100
AcDbEntity
  8
0
  6
Continuous
 62
     2
100
AcDbLine
 10
622.9586029779493
 20
777.9932653158342
 30
0.0
 11
622.9586029779493
 21
825.5932881023373
 31
0.0
  0
LINE
  5
FF
330
1F
100
AcDbEntity
  8
0
  6
Continuous
 62
     2
100
AcDbLine
 10
620.5586029779492
 20
777.9932653158342
 30
0.0
 11
620.5586029779492
 21
825.5932881023373
 31
0.0
  0
LINE
  5
100
330
1F
100
AcDbEntity
  8
0
  6
Continuous
 62
     2
100
AcDbLine
 10
618.1586029779492
 20
777.9932653158342
 30
0.0
 11
618.1586029779492
 21
825.5932881023373
 31
0.0
  0
LINE
  5
101
330
1F
100
AcDbEntity
  8
0
  6
Continuous
 62
     2
100
AcDbLine
 10
615.7586029779493
 20
777.9932653158342
 30
0.0
 11
615.7586029779493
 21
825.5932881023373
 31
0.0
  0
LINE
  5
102
330
1F
100
AcDbEntity
  8
0
  6
Continuous
 62
     2
100
AcDbLine
 10
613.3586029779492
 20
777.9932653158342
 30
0.0
 11
613.3586029779492
 21
909.5932663628463
 31
0.0
  0
LINE
  5
103
330
1F
100
AcDbEntity
  8
0
  6
Continuous
 62
     2
100
AcDbLine
 10
624.9586029779493
 20
909.5932663628463
 30
0.0
 11
624.9586029779493
 21
900.993135519956
 31
0.0
  0
LINE
  5
104
330
1F
100
AcDbEntity
  8
0
  6
Continuous
 62
     2
100
AcDbLine
 10
636.9586029779493
 20
909.5932663628463
 30
0.0
 11
636.9586029779493
 21
777.9932653158337
 31
0.0
  0
LINE
  5
105
330
1F
100
AcDbEntity
  8
0
  6
Continuous
 62
     2
100
AcDbLine
 10
634.5586029779492
 20
909.5932663628463
 30
0.0
 11
634.5586029779502
 21
900.993135519956
 31
0.0
  0
LINE
  5
106
330
1F
100
AcDbEntity
  8
0
  6
Continuous
 62
     2
100
AcDbLine
 10
632.1586029779492
 20
909.5932663628463
 30
0.0
 11
632.1586029779492
 21
900.993135519956
 31
0.0
  0
LINE
  5
107
330
1F
100
AcDbEntity
  8
0
  6
Continuous
 62
     2
100
AcDbLine
 10
629.7586029779493
 20
909.5932663628463
 30
0.0
 11
629.7586029779493
 21
900.993135519956
 31
0.0
  0
LINE
  5
108
330
1F
100
AcDbEntity
  8
0
  6
Continuous
 62
     2
100
AcDbLine
 10
627.3586029779492
 20
909.5932663628463
 30
0.0
 11
627.3586029779492
 21
900.9931355199561
 31
0.0
  0
LINE
  5
109
330
1F
100
AcDbEntity
  8
0
  6
Continuous
 62
     7
100
AcDbLine
 10
850.0807319572141
 20
920.436739124714
 30
0.0
 11
822.858227896711
 21
921.1495854809592
 31
0.0
  0
LINE
  5
10A
330
1F
100
AcDbEntity
  8
0
  6
Continuous
 62
     7
100
AcDbLine
 10
822.371316370864
 20
773.4170012143998
 30
0.0
 11
822.371316370864
 21
913.1953725464014
 31
0.0
  0
LINE
  5
10B
330
1F
100
AcDbEntity
  8
0
  6
Continuous
 62
     7
100
AcDbLine
 10
857.8713163707441
 20
912.4394805249617
 30
0.0
 11
857.8713163708471
 21
916.982616556216
 31
0.0
  0
LINE
  5
10C
330
1F
100
AcDbEntity
  8
0
  6
Continuous
 62
     7
100
AcDbLine
 10
821.884404845018
 20
935.5179704056077
 30
0.0
 11
811.37131637074
 21
935.7932653158396
 31
0.0
  0
LINE
  5
10D
330
1F
100
AcDbEntity
  8
0
  6
Continuous
 62
     7
100
AcDbLine
 10
822.371316370864
 20
935.0181417431202
 30
0.0
 11
822.371316370866
 21
928.5076189037521
 31
0.0
  0
LINE
  5
10E
330
1F
100
AcDbEntity
  8
0
  6
Continuous
 62
     7
100
AcDbLine
 10
857.871316370866
 20
894.7932653158321
 30
0.0
 11
857.871316370751
 21
912.4394805249617
 31
0.0
  0
LINE
  5
10F
330
1F
100
AcDbEntity
  8
0
  6
Continuous
 62
     7
100
AcDbLine
 10
811.37131637074
 20
935.7932653158396
 30
0.0
 11
811.371316370866
 21
928.7956640410107
 31
0.0
  0
LINE
  5
110
330
1F
100
AcDbEntity
  8
0
  6
Continuous
 62
     7
100
AcDbLine
 10
811.371316370866
 20
928.7956640410107
 30
0.0
 11
811.371316370866
 21
758.7908665906571
 31
0.0
  0
LINE
  5
111
330
1F
100
AcDbEntity
  8
0
  6
Continuous
 62
     7
100
AcDbLine
 10
822.371316370864
 20
913.1953725464014
 30
0.0
 11
822.371316370866
 21
928.5076189037521
 31
0.0
  0
LINE
  5
112
330
1F
100
AcDbEntity
  8
0
  6
Continuous
 62
     2
100
AcDbLine
 10
634.9586029779493
 20
900.993135519956
 30
0.0
 11
634.9586029779493
 21
909.5932663628463
 31
0.0
  0
LINE
  5
113
330
1F
100
AcDbEntity
  8
0
  6
Continuous
 62
     2
100
AcDbLine
 10
634.1750382530913
 20
889.6489010514911
 30
0.0
 11
625.7586029779493
 21
884.793265315832
 31
0.0
  0
LINE
  5
114
330
1F
100
AcDbEntity
  8
0
  6
Continuous
 62
     2
100
AcDbLine
 10
625.7586029779493
 20
894.793265315832
 30
0.0
 11
634.1750382530913
 21
889.937629580173
 31
0.0
  0
LINE
  5
115
330
1F
100
AcDbEntity
  8
0
  6
Continuous
 62
     2
100
AcDbLine
 10
634.1250660077421
 20
889.7355196100953
 30
0.0
 11
625.7586029779493
 21
884.9087140159841
 31
0.0
  0
LINE
  5
116
330
1F
100
AcDbEntity
  8
0
  6
Continuous
 62
     2
100
AcDbLine
 10
625.7586029779493
 20
894.6778166156791
 30
0.0
 11
634.1250660077421
 21
889.8510110215686
 31
0.0
  0
LINE
  5
117
330
1F
100
AcDbEntity
  8
0
  6
Continuous
 62
     2
100
AcDbLine
 10
631.9363408134511
 20
856.1682881023373
 30
0.0
 11
632.6863408134511
 21
857.2307881023371
 31
0.0
  0
LINE
  5
118
330
1F
100
AcDbEntity
  8
0
  6
Continuous
 62
     2
100
AcDbLine
 10
629.4363408134502
 20
857.7932881023371
 30
0.0
 11
632.6863408134502
 21
857.7932881023371
 31
0.0
  0
LINE
  5
119
330
1F
100
AcDbEntity
  8
0
  6
Continuous
 62
     2
100
AcDbLine
 10
631.9363408134511
 20
856.1682881023373
 30
0.0
 11
631.4363408134502
 21
855.2307881023371
 31
0.0
  0
LINE
  5
11A
330
1F
100
AcDbEntity
  8
0
  6
Continuous
 62
     2
100
AcDbLine
 10
631.9363408134511
 20
857.1682881023371
 30
0.0
 11
629.4363408134502
 21
857.1682881023373
 31
0.0
  0
LINE
  5
11B
330
1F
100
AcDbEntity
  8
0
  6
Continuous
 62
     2
100
AcDbLine
 10
631.4363408134502
 20
855.2307881023371
 30
0.0
 11
631.1238408134502
 21
854.4807881023373
 31
0.0
  0
LINE
  5
11C
330
1F
100
AcDbEntity
  8
0
  6
Continuous
 62
     2
100
AcDbLine
 10
630.9363408134502
 20
853.7307881023369
 30
0.0
 11
631.1238408134502
 21
854.4807881023373
 31
0.0
  0
LINE
  5
11D
330
1F
100
AcDbEntity
  8
0
  6
Continuous
 62
     2
100
AcDbLine
 10
630.7488408134511
 20
855.2932881023373
 30
0.0
 11
631.1238408134511
 21
856.0432881023373
 31
0.0
  0
LINE
  5
11E
330
1F
100
AcDbEntity
  8
0
  6
Continuous
 62
     2
100
AcDbLine
 10
627.5976216637732
 20
847.3432881023373
 30
0.0
 11
629.3488408134513
 21
847.3432881023373
 31
0.0
  0
LINE
  5
11F
330
1F
100
AcDbEntity
  8
0
  6
Continuous
 62
     2
100
AcDbLine
 10
627.5976216637741
 20
848.2432881023371
 30
0.0
 11
629.3488408134513
 21
848.2432881023371
 31
0.0
  0
LINE
  5
120
330
1F
100
AcDbEntity
  8
0
  6
Continuous
 62
     2
100
AcDbLine
 10
629.7273529779493
 20
882.793265315771
 30
0.0
 11
628.1648529779493
 21
878.793265315771
 31
0.0
  0
LINE
  5
121
330
1F
100
AcDbEntity
  8
0
  6
Continuous
 62
     2
100
AcDbLine
 10
628.4773529779493
 20
877.793265315771
 30
0.0
 11
629.9773529779493
 21
881.668265315771
 31
0.0
  0
LINE
  5
122
330
1F
100
AcDbEntity
  8
0
  6
Continuous
 62
     2
100
AcDbLine
 10
630.9363408134502
 20
853.7307881023369
 30
0.0
 11
630.8113408134502
 21
852.7932881023371
 31
0.0
  0
LINE
  5
123
330
1F
100
AcDbEntity
  8
0
  6
Continuous
 62
     2
100
AcDbLine
 10
630.7488408134511
 20
855.2932881023373
 30
0.0
 11
630.4988408134511
 21
854.7307881023373
 31
0.0
  0
LINE
  5
124
330
1F
100
AcDbEntity
  8
0
  6
Continuous
 62
     2
100
AcDbLine
 10
630.1586029779492
 20
900.993135519956
 30
0.0
 11
630.1586029779492
 21
909.5932663628463
 31
0.0
  0
LINE
  5
125
330
1F
100
AcDbEntity
  8
0
  6
Continuous
 62
     2
100
AcDbLine
 10
629.9251771291133
 20
887.851267396213
 30
0.0
 11
628.5918437957803
 21
887.0820366269816
 31
0.0
  0
LINE
  5
126
330
1F
100
AcDbEntity
  8
0
  6
Continuous
 62
     2
100
AcDbLine
 10
628.5918437957791
 20
892.5044940046821
 30
0.0
 11
629.9251771291133
 21
891.7352632354518
 31
0.0
  0
LINE
  5
127
330
1F
100
AcDbEntity
  8
0
  6
Continuous
 62
     2
100
AcDbLine
 10
628.7586029779493
 20
890.1265986491649
 30
0.0
 11
629.7586029779493
 21
890.1265986491649
 31
0.0
  0
LINE
  5
128
330
1F
100
AcDbEntity
  8
0
  6
Continuous
 62
     2
100
AcDbLine
 10
628.7586029779493
 20
891.6386287831841
 30
0.0
 11
628.7586029779493
 21
890.1265986491649
 31
0.0
  0
LINE
  5
129
330
1F
100
AcDbEntity
  8
0
  6
Continuous
 62
     2
100
AcDbLine
 10
629.5920288267862
 20
891.157806178086
 30
0.0
 11
628.7586029779493
 21
891.6386287831841
 31
0.0
  0
LINE
  5
12A
330
1F
100
AcDbEntity
  8
0
  6
Continuous
 62
     2
100
AcDbLine
 10
628.7586029779493
 20
887.9479018484801
 30
0.0
 11
629.5920288267873
 21
888.4287244535772
 31
0.0
  0
LINE
  5
12B
330
1F
100
AcDbEntity
  8
0
  6
Continuous
 62
     2
100
AcDbLine
 10
628.7586029779493
 20
889.4599319824993
 30
0.0
 11
628.7586029779493
 21
887.9479018484801
 31
0.0
  0
LINE
  5
12C
330
1F
100
AcDbEntity
  8
0
  6
Continuous
 62
     2
100
AcDbLine
 10
629.7586029779493
 20
889.4599319824993
 30
0.0
 11
628.7586029779493
 21
889.4599319824993
 31
0.0
  0
LINE
  5
12D
330
1F
100
AcDbEntity
  8
0
  6
Continuous
 62
     2
100
AcDbLine
 10
630.8113408134502
 20
852.7932881023371
 30
0.0
 11
630.0613408134502
 21
852.7932881023373
 31
0.0
  0
LINE
  5
12E
330
1F
100
AcDbEntity
  8
0
  6
Continuous
 62
     2
100
AcDbLine
 10
630.1863408134511
 20
853.7932881023373
 30
0.0
 11
630.0613408134502
 21
852.7932881023373
 31
0.0
  0
LINE
  5
12F
330
1F
100
AcDbEntity
  8
0
  6
Continuous
 62
     2
100
AcDbLine
 10
630.1863408134511
 20
853.7932881023373
 30
0.0
 11
630.4988408134511
 21
854.7307881023373
 31
0.0
  0
LINE
  5
130
330
1F
100
AcDbEntity
  8
0
  6
Continuous
 62
     2
100
AcDbLine
 10
629.3488408134513
 20
847.3432881023373
 30
0.0
 11
629.3488408134513
 21
848.2432881023371
 31
0.0
  0
LINE
  5
131
330
1F
100
AcDbEntity
  8
0
  6
Continuous
 62
     2
100
AcDbLine
 10
629.4363408134502
 20
857.1682881023373
 30
0.0
 11
629.4363408134502
 21
857.7932881023371
 31
0.0
  0
LINE
  5
132
330
1F
100
AcDbEntity
  8
0
  6
Continuous
 62
     2
100
AcDbLine
 10
630.6023529779493
 20
882.793265315771
 30
0.0
 11
629.7273529779493
 21
882.793265315771
 31
0.0
  0
LINE
  5
133
330
1F
100
AcDbEntity
  8
0
  6
Continuous
 62
     2
100
AcDbLine
 10
629.9773529779493
 20
881.668265315771
 30
0.0
 11
629.9773529779493
 21
877.793265315771
 31
0.0
  0
LINE
  5
134
330
1F
100
AcDbEntity
  8
0
  6
Continuous
 62
     2
100
AcDbLine
 10
629.9773529779493
 20
877.793265315771
 30
0.0
 11
630.6023529779493
 21
877.793265315771
 31
0.0
  0
LINE
  5
135
330
1F
100
AcDbEntity
  8
0
  6
Continuous
 62
     2
100
AcDbLine
 10
630.6023529779493
 20
877.793265315771
 30
0.0
 11
630.6023529779493
 21
882.793265315771
 31
0.0
  0
LINE
  5
136
330
1F
100
AcDbEntity
  8
0
  6
Continuous
 62
     2
100
AcDbLine
 10
629.6488408134512
 20
845.6932881023372
 30
0.0
 11
629.9488408134512
 21
845.6932881023372
 31
0.0
  0
LINE
  5
137
330
1F
100
AcDbEntity
  8
0
  6
Continuous
 62
     2
100
AcDbLine
 10
629.6488408134512
 20
849.8932881023372
 30
0.0
 11
629.9488408134512
 21
849.8932881023372
 31
0.0
  0
LINE
  5
138
330
1F
100
AcDbEntity
  8
0
  6
Continuous
 62
     2
100
AcDbLine
 10
629.9488408134512
 20
850.7932881023373
 30
0.0
 11
629.9488408134512
 21
849.8932881023372
 31
0.0
  0
LINE
  5
139
330
1F
100
AcDbEntity
  8
0
  6
Continuous
 62
     2
100
AcDbLine
 10
629.9488408134512
 20
850.7932881023373
 30
0.0
 11
629.6488408134512
 21
850.7932881023371
 31
0.0
  0
LINE
  5
13A
330
1F
100
AcDbEntity
  8
0
  6
Continuous
 62
     2
100
AcDbLine
 10
629.9488408134512
 20
844.7932881023371
 30
0.0
 11
629.6488408134512
 21
844.7932881023371
 31
0.0
  0
LINE
  5
13B
330
1F
100
AcDbEntity
  8
0
  6
Continuous
 62
     2
100
AcDbLine
 10
629.9488408134512
 20
844.7932881023371
 30
0.0
 11
629.9488408134512
 21
845.6932881023372
 31
0.0
  0
LINE
  5
13C
330
1F
100
AcDbEntity
  8
0
  6
Continuous
 62
     2
100
AcDbLine
 10
628.3113408134511
 20
853.7932881023376
 30
0.0
 11
628.4363408134511
 21
854.1682881023373
 31
0.0
  0
LINE
  5
13D
330
1F
100
AcDbEntity
  8
0
  6
Continuous
 62
     2
100
AcDbLine
 10
628.4363408134502
 20
854.6682881023373
 30
0.0
 11
628.4363408134511
 21
854.1682881023373
 31
0.0
  0
LINE
  5
13E
330
1F
100
AcDbEntity
  8
0
  6
Continuous
 62
     2
100
AcDbLine
 10
628.3113408134511
 20
853.7932881023376
 30
0.0
 11
628.1863408134511
 21
853.5432881023373
 31
0.0
  0
LINE
  5
13F
330
1F
100
AcDbEntity
  8
0
  6
Continuous
 62
     2
100
AcDbLine
 10
628.3113408134502
 20
855.0432881023374
 30
0.0
 11
628.4363408134502
 21
854.6682881023373
 31
0.0
  0
LINE
  5
140
330
1F
100
AcDbEntity
  8
0
  6
Continuous
 62
     2
100
AcDbLine
 10
628.3738408134502
 20
856.4807881023373
 30
0.0
 11
628.3738408134502
 21
856.3557881023371
 31
0.0
  0
LINE
  5
141
330
1F
100
AcDbEntity
  8
0
  6
Continuous
 62
     2
100
AcDbLine
 10
628.1863408134511
 20
855.2932881023369
 30
0.0
 11
628.3113408134502
 21
855.0432881023374
 31
0.0
  0
LINE
  5
142
330
1F
100
AcDbEntity
  8
0
  6
Continuous
 62
     2
100
AcDbLine
 10
628.3113408134502
 20
856.7932881023373
 30
0.0
 11
628.3738408134502
 21
856.4807881023373
 31
0.0
  0
LINE
  5
143
330
1F
100
AcDbEntity
  8
0
  6
Continuous
 62
     2
100
AcDbLine
 10
628.1863408134502
 20
857.0432881023371
 30
0.0
 11
628.3113408134502
 21
856.7932881023373
 31
0.0
  0
LINE
  5
144
330
1F
100
AcDbEntity
  8
0
  6
Continuous
 62
     2
100
AcDbLine
 10
627.6238408134502
 20
855.8557881023371
 30
0.0
 11
627.8113408134511
 21
855.7307881023371
 31
0.0
  0
LINE
  5
145
330
1F
100
AcDbEntity
  8
0
  6
Continuous
 62
     2
100
AcDbLine
 10
627.8113408134511
 20
853.1057881023373
 30
0.0
 11
627.6238408134511
 21
852.9807881023373
 31
0.0
  0
LINE
  5
146
330
1F
100
AcDbEntity
  8
0
  6
Continuous
 62
     2
100
AcDbLine
 10
627.8113408134502
 20
854.6057881023373
 30
0.0
 11
627.6863408134502
 21
854.9182881023371
 31
0.0
  0
LINE
  5
147
330
1F
100
AcDbEntity
  8
0
  6
Continuous
 62
     2
100
AcDbLine
 10
627.6238408134511
 20
857.6057881023369
 30
0.0
 11
627.8113408134511
 21
857.4807881023366
 31
0.0
  0
LINE
  5
148
330
1F
100
AcDbEntity
  8
0
  6
Continuous
 62
     2
100
AcDbLine
 10
627.8113408134502
 20
854.6057881023373
 30
0.0
 11
627.8113408134502
 21
854.2307881023371
 31
0.0
  0
LINE
  5
149
330
1F
100
AcDbEntity
  8
0
  6
Continuous
 62
     2
100
AcDbLine
 10
627.9988408134511
 20
853.2932881023373
 30
0.0
 11
627.8113408134511
 21
853.1057881023373
 31
0.0
  0
LINE
  5
14A
330
1F
100
AcDbEntity
  8
0
  6
Continuous
 62
     2
100
AcDbLine
 10
627.8113408134511
 20
855.7307881023371
 30
0.0
 11
627.9988408134502
 21
855.5432881023376
 31
0.0
  0
LINE
  5
14B
330
1F
100
AcDbEntity
  8
0
  6
Continuous
 62
     2
100
AcDbLine
 10
627.9988408134511
 20
857.2932881023369
 30
0.0
 11
627.8113408134511
 21
857.4807881023366
 31
0.0
  0
LINE
  5
14C
330
1F
100
AcDbEntity
  8
0
  6
Continuous
 62
     2
100
AcDbLine
 10
628.0919363112832
 20
887.3707651556641
 30
0.0
 11
628.0919363112823
 21
892.2157654759992
 31
0.0
  0
LINE
  5
14D
330
1F
100
AcDbEntity
  8
0
  6
Continuous
 62
     2
100
AcDbLine
 10
627.7488408134502
 20
856.3557881023373
 30
0.0
 11
627.6863408134502
 21
856.6682881023371
 31
0.0
  0
LINE
  5
14E
330
1F
100
AcDbEntity
  8
0
  6
Continuous
 62
     2
100
AcDbLine
 10
627.6863408134511
 20
853.9182881023373
 30
0.0
 11
627.8113408134502
 21
854.2307881023371
 31
0.0
  0
LINE
  5
14F
330
1F
100
AcDbEntity
  8
0
  6
Continuous
 62
     2
100
AcDbLine
 10
628.1863408134511
 20
855.2932881023369
 30
0.0
 11
627.9988408134502
 21
855.5432881023376
 31
0.0
  0
LINE
  5
150
330
1F
100
AcDbEntity
  8
0
  6
Continuous
 62
     2
100
AcDbLine
 10
628.1863408134511
 20
853.5432881023373
 30
0.0
 11
627.9988408134511
 21
853.2932881023373
 31
0.0
  0
LINE
  5
151
330
1F
100
AcDbEntity
  8
0
  6
Continuous
 62
     2
100
AcDbLine
 10
627.9988408134511
 20
857.2932881023369
 30
0.0
 11
628.1863408134502
 21
857.0432881023371
 31
0.0
  0
LINE
  5
152
330
1F
100
AcDbEntity
  8
0
  6
Continuous
 62
     2
100
AcDbLine
 10
628.3738408134502
 20
856.3557881023371
 30
0.0
 11
627.7488408134502
 21
856.3557881023373
 31
0.0
  0
LINE
  5
153
330
1F
100
AcDbEntity
  8
0
  6
Continuous
 62
     2
100
AcDbLine
 10
615.7586029779493
 20
900.9931355199559
 30
0.0
 11
615.7586029779493
 21
909.5932663628463
 31
0.0
  0
LINE
  5
154
330
1F
100
AcDbEntity
  8
0
  6
Continuous
 62
     2
100
AcDbLine
 10
618.1586029779492
 20
900.993135519956
 30
0.0
 11
618.1586029779492
 21
909.5932663628463
 31
0.0
  0
LINE
  5
155
330
1F
100
AcDbEntity
  8
0
  6
Continuous
 62
     2
100
AcDbLine
 10
618.8113408134502
 20
852.7932881023373
 30
0.0
 11
618.8113408134502
 21
857.7932881023371
 31
0.0
  0
LINE
  5
156
330
1F
100
AcDbEntity
  8
0
  6
Continuous
 62
     2
100
AcDbLine
 10
618.8113408134502
 20
857.7932881023371
 30
0.0
 11
619.4988408134502
 21
857.7932881023371
 31
0.0
  0
LINE
  5
157
330
1F
100
AcDbEntity
  8
0
  6
Continuous
 62
     2
100
AcDbLine
 10
619.4988408134502
 20
852.7932881023373
 30
0.0
 11
618.8113408134502
 21
852.7932881023373
 31
0.0
  0
LINE
  5
158
330
1F
100
AcDbEntity
  8
0
  6
Continuous
 62
     2
100
AcDbLine
 10
619.4988408134502
 20
857.7932881023371
 30
0.0
 11
619.4988408134502
 21
852.7932881023373
 31
0.0
  0
LINE
  5
159
330
1F
100
AcDbEntity
  8
0
  6
Continuous
 62
     2
100
AcDbLine
 10
620.4988408134502
 20
852.7932881023373
 30
0.0
 11
620.4988408134502
 21
857.7932881023371
 31
0.0
  0
LINE
  5
15A
330
1F
100
AcDbEntity
  8
0
  6
Continuous
 62
     2
100
AcDbLine
 10
620.5586029779492
 20
900.993135519956
 30
0.0
 11
620.5586029779492
 21
909.5932663628463
 31
0.0
  0
LINE
  5
15B
330
1F
100
AcDbEntity
  8
0
  6
Continuous
 62
     2
100
AcDbLine
 10
620.4988408134502
 20
852.7932881023373
 30
0.0
 11
621.1863408134502
 21
852.7932881023373
 31
0.0
  0
LINE
  5
15C
330
1F
100
AcDbEntity
  8
0
  6
Continuous
 62
     2
100
AcDbLine
 10
622.6863408134502
 20
857.7932881023371
 30
0.0
 11
620.4988408134502
 21
857.7932881023371
 31
0.0
  0
LINE
  5
15D
330
1F
100
AcDbEntity
  8
0
  6
Continuous
 62
     2
100
AcDbLine
 10
624.7273529779493
 20
882.793265315771
 30
0.0
 11
620.9148529779493
 21
882.793265315771
 31
0.0
  0
LINE
  5
15E
330
1F
100
AcDbEntity
  8
0
  6
Continuous
 62
     2
100
AcDbLine
 10
620.9148529779493
 20
882.168265315771
 30
0.0
 11
622.4773529779493
 21
882.168265315771
 31
0.0
  0
LINE
  5
15F
330
1F
100
AcDbEntity
  8
0
  6
Continuous
 62
     2
100
AcDbLine
 10
627.8523529779493
 20
877.793265315771
 30
0.0
 11
628.4773529779493
 21
877.793265315771
 31
0.0
  0
LINE
  5
160
330
1F
100
AcDbEntity
  8
0
  6
Continuous
 62
     2
100
AcDbLine
 10
627.4252696446163
 20
886.6015343864342
 30
0.0
 11
627.4252696446163
 21
893.0244826278672
 31
0.0
  0
LINE
  5
161
330
1F
100
AcDbEntity
  8
0
  6
Continuous
 62
     2
100
AcDbLine
 10
627.7586029779493
 20
900.993135519956
 30
0.0
 11
627.7586029779493
 21
909.5932663628463
 31
0.0
  0
LINE
  5
162
330
1F
100
AcDbEntity
  8
0
  6
Continuous
 62
     2
100
AcDbLine
 10
627.6863408134502
 20
856.6682881023371
 30
0.0
 11
627.5613408134511
 21
856.8557881023369
 31
0.0
  0
LINE
  5
163
330
1F
100
AcDbEntity
  8
0
  6
Continuous
 62
     2
100
AcDbLine
 10
627.6863408134502
 20
854.9182881023371
 30
0.0
 11
627.5613408134502
 21
855.1057881023371
 31
0.0
  0
LINE
  5
164
330
1F
100
AcDbEntity
  8
0
  6
Continuous
 62
     2
100
AcDbLine
 10
627.5613408134511
 20
853.7307881023373
 30
0.0
 11
627.6863408134511
 21
853.9182881023373
 31
0.0
  0
LINE
  5
165
330
1F
100
AcDbEntity
  8
0
  6
Continuous
 62
     2
100
AcDbLine
 10
621.1863408134502
 20
852.7932881023373
 30
0.0
 11
621.1863408134502
 21
854.7932881023373
 31
0.0
  0
LINE
  5
166
330
1F
100
AcDbEntity
  8
0
  6
Continuous
 62
     2
100
AcDbLine
 10
621.1863408134502
 20
855.4182881023371
 30
0.0
 11
621.1863408134502
 21
857.1682881023371
 31
0.0
  0
LINE
  5
167
330
1F
100
AcDbEntity
  8
0
  6
Continuous
 62
     2
100
AcDbLine
 10
622.6863408134502
 20
854.7932881023371
 30
0.0
 11
621.1863408134502
 21
854.7932881023373
 31
0.0
  0
LINE
  5
168
330
1F
100
AcDbEntity
  8
0
  6
Continuous
 62
     2
100
AcDbLine
 10
622.4988408134502
 20
855.4182881023371
 30
0.0
 11
621.1863408134502
 21
855.4182881023371
 31
0.0
  0
LINE
  5
169
330
1F
100
AcDbEntity
  8
0
  6
Continuous
 62
     2
100
AcDbLine
 10
622.4988408134502
 20
857.1682881023371
 30
0.0
 11
621.1863408134502
 21
857.1682881023371
 31
0.0
  0
LINE
  5
16A
330
1F
100
AcDbEntity
  8
0
  6
Continuous
 62
     2
100
AcDbLine
 10
628.1648529779493
 20
878.793265315771
 30
0.0
 11
626.6023529779493
 21
882.793265315771
 31
0.0
  0
LINE
  5
16B
330
1F
100
AcDbEntity
  8
0
  6
Continuous
 62
     2
100
AcDbLine
 10
622.4773529779493
 20
882.168265315771
 30
0.0
 11
622.4773529779493
 21
877.793265315771
 31
0.0
  0
LINE
  5
16C
330
1F
100
AcDbEntity
  8
0
  6
Continuous
 62
     2
100
AcDbLine
 10
622.4773529779493
 20
877.793265315771
 30
0.0
 11
623.1648529779493
 21
877.793265315771
 31
0.0
  0
LINE
  5
16D
330
1F
100
AcDbEntity
  8
0
  6
Continuous
 62
     2
100
AcDbLine
 10
624.8488408134501
 20
844.7932881023371
 30
0.0
 11
624.5488408134502
 21
844.7932881023371
 31
0.0
  0
LINE
  5
16E
330
1F
100
AcDbEntity
  8
0
  6
Continuous
 62
     2
100
AcDbLine
 10
627.3113408134511
 20
852.8557881023371
 30
0.0
 11
626.9988408134511
 21
852.7932881023371
 31
0.0
  0
LINE
  5
16F
330
1F
100
AcDbEntity
  8
0
  6
Continuous
 62
     2
100
AcDbLine
 10
626.6863408134511
 20
852.7932881023371
 30
0.0
 11
626.3738408134511
 21
852.8557881023371
 31
0.0
  0
LINE
  5
170
330
1F
100
AcDbEntity
  8
0
  6
Continuous
 62
     2
100
AcDbLine
 10
624.8488408134501
 20
845.6932881023372
 30
0.0
 11
624.8488408134501
 21
844.7932881023371
 31
0.0
  0
LINE
  5
171
330
1F
100
AcDbEntity
  8
0
  6
Continuous
 62
     2
100
AcDbLine
 10
624.5488408134502
 20
845.6932881023372
 30
0.0
 11
624.8488408134501
 21
845.6932881023372
 31
0.0
  0
LINE
  5
172
330
1F
100
AcDbEntity
  8
0
  6
Continuous
 62
     2
100
AcDbLine
 10
624.8488408134501
 20
849.8932881023372
 30
0.0
 11
624.5488408134502
 21
849.8932881023372
 31
0.0
  0
LINE
  5
173
330
1F
100
AcDbEntity
  8
0
  6
Continuous
 62
     2
100
AcDbLine
 10
624.8488408134501
 20
850.7932881023373
 30
0.0
 11
624.8488408134501
 21
849.8932881023372
 31
0.0
  0
LINE
  5
174
330
1F
100
AcDbEntity
  8
0
  6
Continuous
 62
     2
100
AcDbLine
 10
624.5488408134502
 20
850.7932881023371
 30
0.0
 11
624.8488408134501
 21
850.7932881023373
 31
0.0
  0
LINE
  5
175
330
1F
100
AcDbEntity
  8
0
  6
Continuous
 62
     2
100
AcDbLine
 10
626.9988408134511
 20
852.7932881023371
 30
0.0
 11
626.6863408134511
 21
852.7932881023371
 31
0.0
  0
LINE
  5
176
330
1F
100
AcDbEntity
  8
0
  6
Continuous
 62
     2
100
AcDbLine
 10
625.1863408134511
 20
854.4807881023374
 30
0.0
 11
625.1238408134502
 21
855.0432881023373
 31
0.0
  0
LINE
  5
177
330
1F
100
AcDbEntity
  8
0
  6
Continuous
 62
     2
100
AcDbLine
 10
625.4988408134511
 20
857.0432881023373
 30
0.0
 11
625.6863408134511
 21
857.2932881023373
 31
0.0
  0
LINE
  5
178
330
1F
100
AcDbEntity
  8
0
  6
Continuous
 62
     2
100
AcDbLine
 10
626.0613408134511
 20
855.7932881023371
 30
0.0
 11
625.7488408134502
 21
855.4807881023371
 31
0.0
  0
LINE
  5
179
330
1F
100
AcDbEntity
  8
0
  6
Continuous
 62
     2
100
AcDbLine
 10
626.9988408134502
 20
856.0432881023371
 30
0.0
 11
627.3113408134511
 21
855.9807881023371
 31
0.0
  0
LINE
  5
17A
330
1F
100
AcDbEntity
  8
0
  6
Continuous
 62
     2
100
AcDbLine
 10
626.6238408134511
 20
857.7932881023371
 30
0.0
 11
627.0613408134511
 21
857.7932881023371
 31
0.0
  0
LINE
  5
17B
330
1F
100
AcDbEntity
  8
0
  6
Continuous
 62
     2
100
AcDbLine
 10
626.3738408134511
 20
857.7307881023371
 30
0.0
 11
626.6238408134511
 21
857.7932881023371
 31
0.0
  0
LINE
  5
17C
330
1F
100
AcDbEntity
  8
0
  6
Continuous
 62
     2
100
AcDbLine
 10
627.0613408134511
 20
857.7932881023371
 30
0.0
 11
627.3113408134502
 21
857.7307881023371
 31
0.0
  0
LINE
  5
17D
330
1F
100
AcDbEntity
  8
0
  6
Continuous
 62
     2
100
AcDbLine
 10
626.6238408134511
 20
857.1682881023371
 30
0.0
 11
626.3738408134511
 21
857.0432881023374
 31
0.0
  0
LINE
  5
17E
330
1F
100
AcDbEntity
  8
0
  6
Continuous
 62
     2
100
AcDbLine
 10
625.9988408134511
 20
856.6682881023374
 30
0.0
 11
626.1238408134502
 21
856.8557881023371
 31
0.0
  0
LINE
  5
17F
330
1F
100
AcDbEntity
  8
0
  6
Continuous
 62
     2
100
AcDbLine
 10
625.8738408134511
 20
856.3557881023373
 30
0.0
 11
625.7488408134502
 21
855.4807881023371
 31
0.0
  0
LINE
  5
180
330
1F
100
AcDbEntity
  8
0
  6
Continuous
 62
     2
100
AcDbLine
 10
626.3738408134511
 20
857.0432881023374
 30
0.0
 11
626.1238408134502
 21
856.8557881023371
 31
0.0
  0
LINE
  5
181
330
1F
100
AcDbEntity
  8
0
  6
Continuous
 62
     2
100
AcDbLine
 10
627.3113408134511
 20
857.0432881023371
 30
0.0
 11
627.0613408134502
 21
857.1682881023371
 31
0.0
  0
LINE
  5
182
330
1F
100
AcDbEntity
  8
0
  6
Continuous
 62
     2
100
AcDbLine
 10
625.9988408134511
 20
856.6682881023374
 30
0.0
 11
625.8738408134511
 21
856.3557881023373
 31
0.0
  0
LINE
  5
183
330
1F
100
AcDbEntity
  8
0
  6
Continuous
 62
     2
100
AcDbLine
 10
626.0613408134511
 20
855.7932881023371
 30
0.0
 11
626.3738408134511
 21
855.9807881023371
 31
0.0
  0
LINE
  5
184
330
1F
100
AcDbEntity
  8
0
  6
Continuous
 62
     2
100
AcDbLine
 10
626.6863408134502
 20
856.0432881023371
 30
0.0
 11
626.9988408134502
 21
856.0432881023371
 31
0.0
  0
LINE
  5
185
330
1F
100
AcDbEntity
  8
0
  6
Continuous
 62
     2
100
AcDbLine
 10
626.3738408134511
 20
855.9807881023371
 30
0.0
 11
626.6863408134502
 21
856.0432881023371
 31
0.0
  0
LINE
  5
186
330
1F
100
AcDbEntity
  8
0
  6
Continuous
 62
     2
100
AcDbLine
 10
626.3738408134511
 20
857.7307881023371
 30
0.0
 11
626.0613408134511
 21
857.6057881023371
 31
0.0
  0
LINE
  5
187
330
1F
100
AcDbEntity
  8
0
  6
Continuous
 62
     2
100
AcDbLine
 10
627.0613408134502
 20
857.1682881023371
 30
0.0
 11
626.6238408134511
 21
857.1682881023371
 31
0.0
  0
LINE
  5
188
330
1F
100
AcDbEntity
  8
0
  6
Continuous
 62
     2
100
AcDbLine
 10
625.8738408134511
 20
857.4807881023371
 30
0.0
 11
626.0613408134511
 21
857.6057881023371
 31
0.0
  0
LINE
  5
189
330
1F
100
AcDbEntity
  8
0
  6
Continuous
 62
     2
100
AcDbLine
 10
626.9988408134511
 20
855.4182881023371
 30
0.0
 11
626.6863408134502
 21
855.4182881023371
 31
0.0
  0
LINE
  5
18A
330
1F
100
AcDbEntity
  8
0
  6
Continuous
 62
     2
100
AcDbLine
 10
626.3738408134502
 20
855.2932881023371
 30
0.0
 11
626.1238408134502
 21
855.1057881023371
 31
0.0
  0
LINE
  5
18B
330
1F
100
AcDbEntity
  8
0
  6
Continuous
 62
     2
100
AcDbLine
 10
625.9988408134511
 20
854.9182881023373
 30
0.0
 11
625.8738408134502
 21
854.6057881023373
 31
0.0
  0
LINE
  5
18C
330
1F
100
AcDbEntity
  8
0
  6
Continuous
 62
     2
100
AcDbLine
 10
626.1238408134502
 20
855.1057881023371
 30
0.0
 11
625.9988408134511
 21
854.9182881023373
 31
0.0
  0
LINE
  5
18D
330
1F
100
AcDbEntity
  8
0
  6
Continuous
 62
     2
100
AcDbLine
 10
626.6863408134502
 20
855.4182881023371
 30
0.0
 11
626.3738408134502
 21
855.2932881023371
 31
0.0
  0
LINE
  5
18E
330
1F
100
AcDbEntity
  8
0
  6
Continuous
 62
     2
100
AcDbLine
 10
626.9988408134511
 20
855.4182881023371
 30
0.0
 11
627.3113408134502
 21
855.2932881023371
 31
0.0
  0
LINE
  5
18F
330
1F
100
AcDbEntity
  8
0
  6
Continuous
 62
     2
100
AcDbLine
 10
627.3113408134511
 20
853.5432881023373
 30
0.0
 11
626.9988408134511
 21
853.4182881023371
 31
0.0
  0
LINE
  5
190
330
1F
100
AcDbEntity
  8
0
  6
Continuous
 62
     2
100
AcDbLine
 10
626.1238408134511
 20
853.7307881023369
 30
0.0
 11
626.3738408134511
 21
853.5432881023371
 31
0.0
  0
LINE
  5
191
330
1F
100
AcDbEntity
  8
0
  6
Continuous
 62
     2
100
AcDbLine
 10
626.3738408134511
 20
852.8557881023371
 30
0.0
 11
626.0613408134502
 21
852.9807881023371
 31
0.0
  0
LINE
  5
192
330
1F
100
AcDbEntity
  8
0
  6
Continuous
 62
     2
100
AcDbLine
 10
625.8738408134511
 20
853.1057881023369
 30
0.0
 11
625.6863408134511
 21
853.2932881023369
 31
0.0
  0
LINE
  5
193
330
1F
100
AcDbEntity
  8
0
  6
Continuous
 62
     2
100
AcDbLine
 10
625.4988408134502
 20
853.5432881023371
 30
0.0
 11
625.3738408134502
 21
853.7932881023373
 31
0.0
  0
LINE
  5
194
330
1F
100
AcDbEntity
  8
0
  6
Continuous
 62
     2
100
AcDbLine
 10
625.2488408134511
 20
854.1057881023373
 30
0.0
 11
625.1863408134511
 21
854.4807881023374
 31
0.0
  0
LINE
  5
195
330
1F
100
AcDbEntity
  8
0
  6
Continuous
 62
     2
100
AcDbLine
 10
625.3738408134502
 20
853.7932881023373
 30
0.0
 11
625.2488408134511
 21
854.1057881023373
 31
0.0
  0
LINE
  5
196
330
1F
100
AcDbEntity
  8
0
  6
Continuous
 62
     2
100
AcDbLine
 10
625.6863408134511
 20
853.2932881023369
 30
0.0
 11
625.4988408134502
 21
853.5432881023371
 31
0.0
  0
LINE
  5
197
330
1F
100
AcDbEntity
  8
0
  6
Continuous
 62
     2
100
AcDbLine
 10
626.0613408134502
 20
852.9807881023371
 30
0.0
 11
625.8738408134511
 21
853.1057881023369
 31
0.0
  0
LINE
  5
198
330
1F
100
AcDbEntity
  8
0
  6
Continuous
 62
     2
100
AcDbLine
 10
625.9988408134502
 20
853.9182881023374
 30
0.0
 11
626.1238408134511
 21
853.7307881023369
 31
0.0
  0
LINE
  5
199
330
1F
100
AcDbEntity
  8
0
  6
Continuous
 62
     2
100
AcDbLine
 10
625.1238408134502
 20
855.0432881023373
 30
0.0
 11
625.1238408134502
 21
855.5432881023371
 31
0.0
  0
LINE
  5
19A
330
1F
100
AcDbEntity
  8
0
  6
Continuous
 62
     2
100
AcDbLine
 10
625.1863408134511
 20
856.1057881023378
 30
0.0
 11
625.2488408134511
 21
856.4807881023373
 31
0.0
  0
LINE
  5
19B
330
1F
100
AcDbEntity
  8
0
  6
Continuous
 62
     2
100
AcDbLine
 10
625.3738408134511
 20
856.7932881023371
 30
0.0
 11
625.4988408134511
 21
857.0432881023373
 31
0.0
  0
LINE
  5
19C
330
1F
100
AcDbEntity
  8
0
  6
Continuous
 62
     2
100
AcDbLine
 10
625.6863408134511
 20
857.2932881023373
 30
0.0
 11
625.8738408134511
 21
857.4807881023371
 31
0.0
  0
LINE
  5
19D
330
1F
100
AcDbEntity
  8
0
  6
Continuous
 62
     2
100
AcDbLine
 10
625.2488408134511
 20
856.4807881023373
 30
0.0
 11
625.3738408134511
 21
856.7932881023371
 31
0.0
  0
LINE
  5
19E
330
1F
100
AcDbEntity
  8
0
  6
Continuous
 62
     2
100
AcDbLine
 10
625.1863408134511
 20
856.1057881023378
 30
0.0
 11
625.1238408134502
 21
855.5432881023371
 31
0.0
  0
LINE
  5
19F
330
1F
100
AcDbEntity
  8
0
  6
Continuous
 62
     2
100
AcDbLine
 10
625.8738408134502
 20
854.6057881023373
 30
0.0
 11
625.8738408134502
 21
854.2307881023373
 31
0.0
  0
LINE
  5
1A0
330
1F
100
AcDbEntity
  8
0
  6
Continuous
 62
     2
100
AcDbLine
 10
625.8738408134502
 20
854.2307881023373
 30
0.0
 11
625.9988408134502
 21
853.9182881023374
 31
0.0
  0
LINE
  5
1A1
330
1F
100
AcDbEntity
  8
0
  6
Continuous
 62
     2
100
AcDbLine
 10
626.3738408134511
 20
853.5432881023371
 30
0.0
 11
626.6863408134502
 21
853.4182881023371
 31
0.0
  0
LINE
  5
1A2
330
1F
100
AcDbEntity
  8
0
  6
Continuous
 62
     2
100
AcDbLine
 10
626.6863408134502
 20
853.4182881023371
 30
0.0
 11
626.9988408134511
 21
853.4182881023371
 31
0.0
  0
LINE
  5
1A3
330
1F
100
AcDbEntity
  8
0
  6
Continuous
 62
     2
100
AcDbLine
 10
623.1648529779493
 20
882.168265315771
 30
0.0
 11
624.7273529779493
 21
882.168265315771
 31
0.0
  0
LINE
  5
1A4
330
1F
100
AcDbEntity
  8
0
  6
Continuous
 62
     2
100
AcDbLine
 10
626.3523529779493
 20
881.668265315771
 30
0.0
 11
627.8523529779493
 21
877.793265315771
 31
0.0
  0
LINE
  5
1A5
330
1F
100
AcDbEntity
  8
0
  6
Continuous
 62
     2
100
AcDbLine
 10
623.1648529779493
 20
877.793265315771
 30
0.0
 11
623.1648529779493
 21
882.168265315771
 31
0.0
  0
LINE
  5
1A6
330
1F
100
AcDbEntity
  8
0
  6
Continuous
 62
     2
100
AcDbLine
 10
627.3113408134511
 20
852.8557881023371
 30
0.0
 11
627.6238408134511
 21
852.9807881023373
 31
0.0
  0
LINE
  5
1A7
330
1F
100
AcDbEntity
  8
0
  6
Continuous
 62
     2
100
AcDbLine
 10
627.3113408134511
 20
855.9807881023371
 30
0.0
 11
627.6238408134502
 21
855.8557881023371
 31
0.0
  0
LINE
  5
1A8
330
1F
100
AcDbEntity
  8
0
  6
Continuous
 62
     2
100
AcDbLine
 10
627.5613408134511
 20
856.8557881023369
 30
0.0
 11
627.3113408134511
 21
857.0432881023371
 31
0.0
  0
LINE
  5
1A9
330
1F
100
AcDbEntity
  8
0
  6
Continuous
 62
     2
100
AcDbLine
 10
627.3113408134502
 20
857.7307881023371
 30
0.0
 11
627.6238408134511
 21
857.6057881023369
 31
0.0
  0
LINE
  5
1AA
330
1F
100
AcDbEntity
  8
0
  6
Continuous
 62
     2
100
AcDbLine
 10
627.5613408134502
 20
855.1057881023371
 30
0.0
 11
627.3113408134502
 21
855.2932881023371
 31
0.0
  0
LINE
  5
1AB
330
1F
100
AcDbEntity
  8
0
  6
Continuous
 62
     2
100
AcDbLine
 10
627.3113408134511
 20
853.5432881023373
 30
0.0
 11
627.5613408134511
 21
853.7307881023373
 31
0.0
  0
LINE
  5
1AC
330
1F
100
AcDbEntity
  8
0
  6
Continuous
 62
     2
100
AcDbLine
 10
626.9308359609922
 20
893.1569657341042
 30
0.0
 11
625.7586029779493
 21
891.1265986491651
 31
0.0
  0
LINE
  5
1AD
330
1F
100
AcDbEntity
  8
0
  6
Continuous
 62
     2
100
AcDbLine
 10
626.7586029779493
 20
891.5253161234011
 30
0.0
 11
625.9029405452472
 21
890.0432653158321
 31
0.0
  0
LINE
  5
1AE
330
1F
100
AcDbEntity
  8
0
  6
Continuous
 62
     2
100
AcDbLine
 10
626.6023529779493
 20
882.793265315771
 30
0.0
 11
625.7273529779493
 21
882.793265315771
 31
0.0
  0
LINE
  5
1AF
330
1F
100
AcDbEntity
  8
0
  6
Continuous
 62
     2
100
AcDbLine
 10
623.5613408134511
 20
855.0432881023373
 30
0.0
 11
623.1863408134511
 21
854.8557881023371
 31
0.0
  0
LINE
  5
1B0
330
1F
100
AcDbEntity
  8
0
  6
Continuous
 62
     2
100
AcDbLine
 10
623.1863408134511
 20
857.7307881023369
 30
0.0
 11
623.5613408134511
 21
857.5432881023369
 31
0.0
  0
LINE
  5
1B1
330
1F
100
AcDbEntity
  8
0
  6
Continuous
 62
     2
100
AcDbLine
 10
623.4988408134502
 20
856.1057881023371
 30
0.0
 11
623.3738408134502
 21
855.7932881023371
 31
0.0
  0
LINE
  5
1B2
330
1F
100
AcDbEntity
  8
0
  6
Continuous
 62
     2
100
AcDbLine
 10
623.4988408134502
 20
856.4807881023373
 30
0.0
 11
623.3738408134502
 21
856.7932881023373
 31
0.0
  0
LINE
  5
1B3
330
1F
100
AcDbEntity
  8
0
  6
Continuous
 62
     2
100
AcDbLine
 10
623.4252696446163
 20
892.2157654759992
 30
0.0
 11
623.4252696446163
 21
887.5632864638649
 31
0.0
  0
LINE
  5
1B4
330
1F
100
AcDbEntity
  8
0
  6
Continuous
 62
     2
100
AcDbLine
 10
623.3738408134502
 20
855.7932881023371
 30
0.0
 11
623.1863408134511
 21
855.6057881023373
 31
0.0
  0
LINE
  5
1B5
330
1F
100
AcDbEntity
  8
0
  6
Continuous
 62
     2
100
AcDbLine
 10
623.3738408134502
 20
856.7932881023373
 30
0.0
 11
623.1863408134511
 21
856.9807881023371
 31
0.0
  0
LINE
  5
1B6
330
1F
100
AcDbEntity
  8
0
  6
Continuous
 62
     2
100
AcDbLine
 10
622.9586029779493
 20
900.993135519956
 30
0.0
 11
622.9586029779493
 21
909.5932663628463
 31
0.0
  0
LINE
  5
1B7
330
1F
100
AcDbEntity
  8
0
  6
Continuous
 62
     2
100
AcDbLine
 10
622.7586029779493
 20
887.5632864638649
 30
0.0
 11
622.7586029779493
 21
892.2157654759992
 31
0.0
  0
LINE
  5
1B8
330
1F
100
AcDbEntity
  8
0
  6
Continuous
 62
     2
100
AcDbLine
 10
623.1863408134511
 20
856.9807881023371
 30
0.0
 11
622.8738408134502
 21
857.1057881023371
 31
0.0
  0
LINE
  5
1B9
330
1F
100
AcDbEntity
  8
0
  6
Continuous
 62
     2
100
AcDbLine
 10
622.8738408134511
 20
855.4807881023371
 30
0.0
 11
623.1863408134511
 21
855.6057881023373
 31
0.0
  0
LINE
  5
1BA
330
1F
100
AcDbEntity
  8
0
  6
Continuous
 62
     2
100
AcDbLine
 10
621.4252696446163
 20
888.1399959248952
 30
0.0
 11
621.4252696446163
 21
891.4465347067692
 31
0.0
  0
LINE
  5
1BB
330
1F
100
AcDbEntity
  8
0
  6
Continuous
 62
     2
100
AcDbLine
 10
622.0919363112832
 20
891.4465347067692
 30
0.0
 11
622.0919363112832
 21
888.1399959248952
 31
0.0
  0
LINE
  5
1BC
330
1F
100
AcDbEntity
  8
0
  6
Continuous
 62
     2
100
AcDbLine
 10
622.4988408134502
 20
857.1682881023371
 30
0.0
 11
622.8738408134502
 21
857.1057881023371
 31
0.0
  0
LINE
  5
1BD
330
1F
100
AcDbEntity
  8
0
  6
Continuous
 62
     2
100
AcDbLine
 10
622.6863408134502
 20
854.7932881023371
 30
0.0
 11
623.1863408134511
 21
854.8557881023371
 31
0.0
  0
LINE
  5
1BE
330
1F
100
AcDbEntity
  8
0
  6
Continuous
 62
     2
100
AcDbLine
 10
623.1863408134511
 20
857.7307881023369
 30
0.0
 11
622.6863408134502
 21
857.7932881023371
 31
0.0
  0
LINE
  5
1BF
330
1F
100
AcDbEntity
  8
0
  6
Continuous
 62
     2
100
AcDbLine
 10
622.8738408134511
 20
855.4807881023371
 30
0.0
 11
622.4988408134502
 21
855.4182881023371
 31
0.0
  0
LINE
  5
1C0
330
1F
100
AcDbEntity
  8
0
  6
Continuous
 62
     2
100
AcDbLine
 10
625.2586954934532
 20
885.7358827808282
 30
0.0
 11
623.0921213422903
 21
886.9858294064993
 31
0.0
  0
LINE
  5
1C1
330
1F
100
AcDbEntity
  8
0
  6
Continuous
 62
     2
100
AcDbLine
 10
623.4252696446163
 20
887.5632864638649
 30
0.0
 11
625.5918437957791
 21
886.3133398381938
 31
0.0
  0
LINE
  5
1C2
330
1F
100
AcDbEntity
  8
0
  6
Continuous
 62
     2
100
AcDbLine
 10
624.0919363112832
 20
893.0244826278672
 30
0.0
 11
624.0919363112832
 21
888.1408503884652
 31
0.0
  0
LINE
  5
1C3
330
1F
100
AcDbEntity
  8
0
  6
Continuous
 62
     2
100
AcDbLine
 10
625.3586029779492
 20
900.993135519956
 30
0.0
 11
625.3586029779492
 21
909.5932663628463
 31
0.0
  0
LINE
  5
1C4
330
1F
100
AcDbEntity
  8
0
  6
Continuous
 62
     2
100
AcDbLine
 10
624.7586029779493
 20
891.5253161234011
 30
0.0
 11
624.7586029779493
 21
888.1408503884652
 31
0.0
  0
LINE
  5
1C5
330
1F
100
AcDbEntity
  8
0
  6
Continuous
 62
     2
100
AcDbLine
 10
624.7273529779493
 20
882.168265315771
 30
0.0
 11
624.7273529779493
 21
882.793265315771
 31
0.0
  0
LINE
  5
1C6
330
1F
100
AcDbEntity
  8
0
  6
Continuous
 62
     2
100
AcDbLine
 10
626.3523529779493
 20
877.793265315771
 30
0.0
 11
626.3523529779493
 21
881.668265315771
 31
0.0
  0
LINE
  5
1C7
330
1F
100
AcDbEntity
  8
0
  6
Continuous
 62
     2
100
AcDbLine
 10
625.7273529779493
 20
882.793265315771
 30
0.0
 11
625.7273529779493
 21
877.793265315771
 31
0.0
  0
LINE
  5
1C8
330
1F
100
AcDbEntity
  8
0
  6
Continuous
 62
     2
100
AcDbLine
 10
625.7273529779493
 20
877.793265315771
 30
0.0
 11
626.3523529779493
 21
877.793265315771
 31
0.0
  0
LINE
  5
1C9
330
1F
100
AcDbEntity
  8
0
  6
Continuous
 62
     2
100
AcDbLine
 10
624.5863699949061
 20
893.1569657341042
 30
0.0
 11
625.7586029779493
 21
891.1265986491651
 31
0.0
  0
LINE
  5
1CA
330
1F
100
AcDbEntity
  8
0
  6
Continuous
 62
     2
100
AcDbLine
 10
625.6142654106523
 20
890.0432653158321
 30
0.0
 11
624.7586029779493
 21
891.5253161234011
 31
0.0
  0
LINE
  5
1CB
330
1F
100
AcDbEntity
  8
0
  6
Continuous
 62
     2
100
AcDbLine
 10
624.1238408134502
 20
856.1057881023373
 30
0.0
 11
624.1238408134502
 21
856.4807881023373
 31
0.0
  0
LINE
  5
1CC
330
1F
100
AcDbEntity
  8
0
  6
Continuous
 62
     2
100
AcDbLine
 10
624.1238408134502
 20
856.1057881023373
 30
0.0
 11
624.0613408134511
 21
855.6682881023373
 31
0.0
  0
LINE
  5
1CD
330
1F
100
AcDbEntity
  8
0
  6
Continuous
 62
     2
100
AcDbLine
 10
624.0613408134502
 20
856.9182881023371
 30
0.0
 11
624.1238408134502
 21
856.4807881023373
 31
0.0
  0
LINE
  5
1CE
330
1F
100
AcDbEntity
  8
0
  6
Continuous
 62
     2
100
AcDbLine
 10
623.8113408134511
 20
855.2932881023374
 30
0.0
 11
624.0613408134511
 21
855.6682881023373
 31
0.0
  0
LINE
  5
1CF
330
1F
100
AcDbEntity
  8
0
  6
Continuous
 62
     2
100
AcDbLine
 10
624.0613408134502
 20
856.9182881023371
 30
0.0
 11
623.8113408134511
 21
857.2932881023369
 31
0.0
  0
LINE
  5
1D0
330
1F
100
AcDbEntity
  8
0
  6
Continuous
 62
     2
100
AcDbLine
 10
623.4988408134502
 20
856.4807881023373
 30
0.0
 11
623.4988408134502
 21
856.1057881023371
 31
0.0
  0
LINE
  5
1D1
330
1F
100
AcDbEntity
  8
0
  6
Continuous
 62
     2
100
AcDbLine
 10
623.8113408134511
 20
855.2932881023374
 30
0.0
 11
623.5613408134511
 21
855.0432881023373
 31
0.0
  0
LINE
  5
1D2
330
1F
100
AcDbEntity
  8
0
  6
Continuous
 62
     2
100
AcDbLine
 10
623.8113408134511
 20
857.2932881023369
 30
0.0
 11
623.5613408134511
 21
857.5432881023369
 31
0.0
  0
LINE
  5
1D3
330
1F
100
AcDbEntity
  8
0
  6
Continuous
 62
     2
100
AcDbLine
 10
626.7586029779493
 20
891.5253161234011
 30
0.0
 11
626.7586029779493
 21
886.6015343864342
 31
0.0
  0
LINE
  5
1D4
330
1F
100
AcDbEntity
  8
0
  6
Continuous
 62
     2
100
AcDbLine
 10
620.9148529779493
 20
882.793265315771
 30
0.0
 11
620.9148529779493
 21
882.168265315771
 31
0.0
  0
LINE
  5
1D5
330
1F
100
AcDbEntity
  8
0
  6
Continuous
 62
     2
100
AcDbLine
 10
625.7586029779493
 20
884.9087140159841
 30
0.0
 11
617.3921399481571
 21
889.7355196100951
 31
0.0
  0
LINE
  5
1D6
330
1F
100
AcDbEntity
  8
0
  6
Continuous
 62
     2
100
AcDbLine
 10
625.7586029779493
 20
884.793265315832
 30
0.0
 11
617.3421677028082
 21
889.6489010514908
 31
0.0
  0
LINE
  5
1D7
330
1F
100
AcDbEntity
  8
0
  6
Continuous
 62
     2
100
AcDbLine
 10
617.3921399481571
 20
889.851011021568
 30
0.0
 11
625.7586029779493
 21
894.6778166156791
 31
0.0
  0
LINE
  5
1D8
330
1F
100
AcDbEntity
  8
0
  6
Continuous
 62
     2
100
AcDbLine
 10
617.3421677028082
 20
889.937629580173
 30
0.0
 11
625.7586029779493
 21
894.793265315832
 31
0.0
  0
LINE
  5
1D9
330
1F
100
AcDbEntity
  8
0
  6
Continuous
 62
     2
100
AcDbLine
 10
631.1238408134511
 20
856.0432881023373
 30
0.0
 11
631.9363408134511
 21
857.1682881023371
 31
0.0
  0
LINE
  5
1DA
330
1F
100
AcDbEntity
  8
0
  6
Continuous
 62
     2
100
AcDbLine
 10
632.6863408134502
 20
857.7932881023371
 30
0.0
 11
632.6863408134511
 21
857.2307881023371
 31
0.0
  0
LINE
  5
1DB
330
1F
100
AcDbEntity
  8
0
  6
Continuous
 62
     2
100
AcDbLine
 10
632.5586029779502
 20
900.993135519956
 30
0.0
 11
632.5586029779502
 21
909.5932663628463
 31
0.0
  0
LINE
  5
1DC
330
1F
100
AcDbEntity
  8
0
  6
Continuous
 62
     2
100
AcDbLine
 10
612.9586029779493
 20
909.5932663628463
 30
0.0
 11
612.9586029779493
 21
777.9932653158337
 31
0.0
  0
LINE
  5
1DD
330
1F
100
AcDbEntity
  8
0
  6
Continuous
 62
     2
100
AcDbLine
 10
615.3586029779492
 20
909.5932663628463
 30
0.0
 11
615.3586029779492
 21
900.993135519956
 31
0.0
  0
LINE
  5
1DE
330
1F
100
AcDbEntity
  8
0
  6
Continuous
 62
     2
100
AcDbLine
 10
617.7586029779493
 20
909.5932663628463
 30
0.0
 11
617.7586029779493
 21
900.993135519956
 31
0.0
  0
LINE
  5
1DF
330
1F
100
AcDbEntity
  8
0
  6
Continuous
 62
     2
100
AcDbLine
 10
620.1586029779492
 20
909.5932663628463
 30
0.0
 11
620.1586029779492
 21
900.993135519956
 31
0.0
  0
LINE
  5
1E0
330
1F
100
AcDbEntity
  8
0
  6
Continuous
 62
     2
100
AcDbLine
 10
622.5586029779492
 20
909.5932663628463
 30
0.0
 11
622.5586029779492
 21
900.993135519956
 31
0.0
  0
LINE
  5
1E1
330
1F
100
AcDbEntity
  8
0
  6
Continuous
 62
     2
100
AcDbLine
 10
305.0454279462672
 20
912.4112386706573
 30
0.0
 11
313.0390786489663
 21
912.4112386706573
 31
0.0
  0
LINE
  5
1E2
330
1F
100
AcDbEntity
  8
0
  6
Continuous
 62
     2
100
AcDbLine
 10
323.0955627897313
 20
924.2606724401431
 30
0.0
 11
323.0955627897313
 21
916.9826165564491
 31
0.0
  0
LINE
  5
1E3
330
1F
100
AcDbEntity
  8
0
  6
Continuous
 62
     2
100
AcDbLine
 10
305.0454276464452
 20
912.4112386706573
 30
0.0
 11
305.0454279462672
 21
912.4112386706573
 31
0.0
  0
LINE
  5
1E4
330
1F
100
AcDbEntity
  8
0
  6
Continuous
 62
     7
100
AcDbLine
 10
312.7988408134672
 20
921.1621749843633
 30
0.0
 11
312.7988408134672
 21
921.1623357079864
 31
0.0
  0
LINE
  5
1E5
330
1F
100
AcDbEntity
  8
0
  6
Continuous
 62
     7
100
AcDbLine
 10
318.0613872996503
 20
926.2932653158323
 30
0.0
 11
318.0154951029283
 21
926.9311421834334
 31
0.0
  0
LINE
  5
1E6
330
1F
100
AcDbEntity
  8
0
  6
Continuous
 62
     7
100
AcDbLine
 10
822.371316370864
 20
935.5052201785812
 30
0.0
 11
821.884404845018
 21
935.5179704056077
 31
0.0
  0
LINE
  5
1E7
330
1F
100
AcDbEntity
  8
0
  6
Continuous
 62
     7
100
AcDbLine
 10
822.371316370864
 20
935.5052201785812
 30
0.0
 11
852.6074775174491
 21
924.5001575227329
 31
0.0
  0
LINE
  5
1E8
330
1F
100
AcDbEntity
  8
0
  6
Continuous
 62
     2
100
AcDbLine
 10
857.8713163707441
 20
912.7317275861831
 30
0.0
 11
850.5743032338171
 21
912.7317275861831
 31
0.0
  0
LINE
  5
1E9
330
1F
100
AcDbEntity
  8
0
  6
Continuous
 62
     2
100
AcDbLine
 10
850.5743032338171
 20
912.7317275861831
 30
0.0
 11
822.3713163707391
 21
913.4702487881965
 31
0.0
  0
LINE
  5
1EA
330
1F
100
AcDbEntity
  8
0
  6
Continuous
 62
     7
100
AcDbLine
 10
822.37131637074
 20
766.4241949236819
 30
0.0
 11
822.371316370863
 21
761.2932653158357
 31
0.0
  0
LINE
  5
1EB
330
1F
100
AcDbEntity
  8
0
  6
Continuous
 62
     7
100
AcDbLine
 10
822.371316370864
 20
773.4170012143998
 30
0.0
 11
822.37131637074
 21
766.4241949236819
 31
0.0
  0
LINE
  5
1EC
330
1F
100
AcDbEntity
  8
0
  6
Continuous
 62
     7
100
AcDbLine
 10
857.8713163708471
 20
770.6039140754528
 30
0.0
 11
857.871316370745
 21
775.1470501067464
 31
0.0
  0
LINE
  5
1ED
330
1F
100
AcDbEntity
  8
0
  6
Continuous
 62
     7
100
AcDbLine
 10
822.858227896711
 20
766.4369451507087
 30
0.0
 11
850.0807319572141
 21
767.1497915069538
 31
0.0
  0
LINE
  5
1EE
330
1F
100
AcDbEntity
  8
0
  6
Continuous
 62
     7
100
AcDbLine
 10
857.8713163708471
 20
770.6039140754528
 30
0.0
 11
857.8713163707441
 21
775.147050106706
 31
0.0
  0
LINE
  5
1EF
330
1F
100
AcDbEntity
  8
0
  6
Continuous
 62
     7
100
AcDbLine
 10
811.37131637074
 20
751.7932653158282
 30
0.0
 11
821.884404845018
 21
752.0685602260601
 31
0.0
  0
LINE
  5
1F0
330
1F
100
AcDbEntity
  8
0
  6
Continuous
 62
     7
100
AcDbLine
 10
822.371316370866
 20
761.2932653158498
 30
0.0
 11
822.371316370864
 21
752.5683888885477
 31
0.0
  0
LINE
  5
1F1
330
1F
100
AcDbEntity
  8
0
  6
Continuous
 62
     7
100
AcDbLine
 10
811.371316370866
 20
758.7908665906571
 30
0.0
 11
811.37131637074
 21
751.7932653158282
 31
0.0
  0
LINE
  5
1F2
330
1F
100
AcDbEntity
  8
0
  6
Continuous
 62
     7
100
AcDbLine
 10
822.371316370866
 20
761.2932653158498
 30
0.0
 11
822.371316370864
 21
774.3911580852664
 31
0.0
  0
LINE
  5
1F3
330
1F
100
AcDbEntity
  8
0
  6
Continuous
 62
     7
100
AcDbLine
 10
821.884404845018
 20
752.0685602260601
 30
0.0
 11
822.371316370864
 21
752.0813104530868
 31
0.0
  0
LINE
  5
1F4
330
1F
100
AcDbEntity
  8
0
  6
Continuous
 62
     7
100
AcDbLine
 10
852.6074775174491
 20
763.086373108935
 30
0.0
 11
822.371316370864
 21
752.0813104530868
 31
0.0
  0
LINE
  5
1F5
330
1F
100
AcDbEntity
  8
0
  6
Continuous
 62
     2
100
AcDbLine
 10
850.5743032338171
 20
774.8548030454848
 30
0.0
 11
857.8713163707441
 21
774.8548030454848
 31
0.0
  0
LINE
  5
1F6
330
1F
100
AcDbEntity
  8
0
  6
Continuous
 62
     2
100
AcDbLine
 10
822.3713163707391
 20
774.1162818434714
 30
0.0
 11
850.5743032338171
 21
774.8548030454848
 31
0.0
  0
LINE
  5
1F7
330
1F
100
AcDbEntity
  8
0
  6
Continuous
 62
     7
100
AcDbLine
 10
857.8713163707471
 20
775.1470501067464
 30
0.0
 11
857.871316370853
 21
894.7932653158321
 31
0.0
  0
LINE
  5
1F8
330
1F
100
AcDbEntity
  8
0
  6
Continuous
 62
     7
100
AcDbLine
 10
312.7988408134672
 20
921.1621749843633
 30
0.0
 11
312.7988408134672
 21
921.1623357079864
 31
0.0
  0
LINE
  5
1F9
330
1F
100
AcDbEntity
  8
0
  6
Continuous
 62
     7
100
AcDbLine
 10
638.8022316853803
 20
921.1621749843634
 30
0.0
 11
638.8022316853803
 21
921.1623357079864
 31
0.0
  0
LINE
  5
1FA
330
1F
100
AcDbEntity
  8
0
  6
Continuous
 62
     7
100
AcDbLine
 10
638.7988408134202
 20
756.1817935006289
 30
0.0
 11
638.7988408134202
 21
756.1819542242519
 31
0.0
  0
LINE
  5
1FB
330
1F
100
AcDbEntity
  8
0
  6
Continuous
 62
     7
100
AcDbLine
 10
312.8022316853803
 20
756.1621749843666
 30
0.0
 11
312.8022316853803
 21
756.1623357079897
 31
0.0
  0
ARC
  5
1FC
330
1F
100
AcDbEntity
  8
0
  6
Continuous
 62
     7
100
AcDbCircle
 10
313.0454276464452
 20
775.173101723776
 30
0.0
 40
7.999999999999226
100
AcDbArc
 50
179.9843135810933
 51
268.9821999152668
  0
ARC
  5
1FD
330
1F
100
AcDbEntity
  8
0
  6
Continuous
 62
     7
100
AcDbCircle
 10
312.7988408134622
 20
761.2932653158384
 30
0.0
 40
5.882026645172139
100
AcDbArc
 50
41.9538515753179
 51
88.98219991525657
  0
ARC
  5
1FE
330
1F
100
AcDbEntity
  8
0
  6
Continuous
 62
     2
100
AcDbCircle
 10
312.7915460192942
 20
761.2835302044195
 30
0.0
 40
13.893966931897
100
AcDbArc
 50
42.13056772993342
 51
88.97917380857798
  0
ARC
  5
1FF
330
1F
100
AcDbEntity
  8
0
  6
Continuous
 62
     7
100
AcDbCircle
 10
325.9948706709483
 20
760.0813104531128
 30
0.0
 40
7.999999999999806
100
AcDbArc
 50
175.8849323239782
 51
271.0660863950657
  0
ARC
  5
200
330
1F
100
AcDbEntity
  8
0
  6
Continuous
 62
     7
100
AcDbCircle
 10
638.7988408134272
 20
761.2932653158387
 30
0.0
 40
5.882026645172845
100
AcDbArc
 50
91.0178000847324
 51
138.0461484246838
  0
ARC
  5
201
330
1F
100
AcDbEntity
  8
0
  6
Continuous
 62
     7
100
AcDbCircle
 10
638.5522539804433
 20
775.1731017237762
 30
0.0
 40
8.00000000000075
100
AcDbArc
 50
271.0178000847479
 51
0.01568641890514
  0
ARC
  5
202
330
1F
100
AcDbEntity
  8
0
  6
Continuous
 62
     7
100
AcDbCircle
 10
638.5522539804433
 20
912.4134289078919
 30
0.0
 40
8.000000000000135
100
AcDbArc
 50
359.9843135810949
 51
88.9821999152521
  0
ARC
  5
203
330
1F
100
AcDbEntity
  8
0
  6
Continuous
 62
     7
100
AcDbCircle
 10
638.7988408134272
 20
926.2932653158296
 30
0.0
 40
5.882026645172139
100
AcDbArc
 50
221.9538515753179
 51
268.9821999152677
  0
ARC
  5
204
330
1F
100
AcDbEntity
  8
0
  6
Continuous
 62
     2
100
AcDbCircle
 10
624.5488408134502
 20
847.7932881023371
 30
0.0
 40
3.0
100
AcDbArc
 50
90.0
 51
180.0
  0
ARC
  5
205
330
1F
100
AcDbEntity
  8
0
  6
Continuous
 62
     2
100
AcDbCircle
 10
615.5586029779492
 20
825.593288102337
 30
0.0
 40
0.2000000000000455
100
AcDbArc
 50
0.00000000006514
 51
90.0
  0
ARC
  5
206
330
1F
100
AcDbEntity
  8
0
  6
Continuous
 62
     2
100
AcDbCircle
 10
615.5586029779492
 20
900.993135519956
 30
0.0
 40
0.2000000000000455
100
AcDbArc
 50
180.0
 51
270.0
  0
ARC
  5
207
330
1F
100
AcDbEntity
  8
0
  6
Continuous
 62
     2
100
AcDbCircle
 10
638.8061356075953
 20
926.3030004272484
 30
0.0
 40
13.89396693189692
100
AcDbArc
 50
222.1305677299331
 51
268.9791738085789
  0
ARC
  5
208
330
1F
100
AcDbEntity
  8
0
  6
Continuous
 62
     7
100
AcDbCircle
 10
625.6915019856322
 20
927.5087506555558
 30
0.0
 40
7.999999999984907
100
AcDbArc
 50
4.4011945627378
 51
91.70225767891966
  0
ARC
  5
209
330
1F
100
AcDbEntity
  8
0
  6
Continuous
 62
     2
100
AcDbCircle
 10
638.8061356075953
 20
761.2835302044198
 30
0.0
 40
13.89396693189661
100
AcDbArc
 50
91.02082619142111
 51
137.8694322700673
  0
ARC
  5
20A
330
1F
100
AcDbEntity
  8
0
  6
Continuous
 62
     7
100
AcDbCircle
 10
625.6915019856322
 20
760.077779976112
 30
0.0
 40
7.999999999984913
100
AcDbArc
 50
268.2977423210803
 51
355.5988054372638
  0
ARC
  5
20B
330
1F
100
AcDbEntity
  8
0
  6
Continuous
 62
     2
100
AcDbCircle
 10
313.2390786489402
 20
777.9932653158337
 30
0.0
 40
0.2000000000008981
100
AcDbArc
 50
180.0
 51
0.0
  0
ARC
  5
20C
330
1F
100
AcDbEntity
  8
0
  6
Continuous
 62
     2
100
AcDbCircle
 10
315.6390786489392
 20
777.9932653158337
 30
0.0
 40
0.2000000000001023
100
AcDbArc
 50
180.0
 51
0.0
  0
ARC
  5
20D
330
1F
100
AcDbEntity
  8
0
  6
Continuous
 62
     2
100
AcDbCircle
 10
318.0390786489393
 20
777.9932653158337
 30
0.0
 40
0.1999999999992497
100
AcDbArc
 50
180.0
 51
0.0
  0
ARC
  5
20E
330
1F
100
AcDbEntity
  8
0
  6
Continuous
 62
     2
100
AcDbCircle
 10
320.4390786489391
 20
777.9932653158337
 30
0.0
 40
0.1999999999988518
100
AcDbArc
 50
180.0
 51
0.0
  0
ARC
  5
20F
330
1F
100
AcDbEntity
  8
0
  6
Continuous
 62
     2
100
AcDbCircle
 10
322.8390786489401
 20
777.9932653158337
 30
0.0
 40
0.1999999999997613
100
AcDbArc
 50
180.0
 51
0.0
  0
ARC
  5
210
330
1F
100
AcDbEntity
  8
0
  6
Continuous
 62
     2
100
AcDbCircle
 10
325.2390786489402
 20
777.9932653158337
 30
0.0
 40
0.2000000000008981
100
AcDbArc
 50
180.0
 51
0.0
  0
ARC
  5
211
330
1F
100
AcDbEntity
  8
0
  6
Continuous
 62
     2
100
AcDbCircle
 10
327.6390786489403
 20
777.9932653158337
 30
0.0
 40
0.2000000000012392
100
AcDbArc
 50
180.0
 51
0.0
  0
ARC
  5
212
330
1F
100
AcDbEntity
  8
0
  6
Continuous
 62
     2
100
AcDbCircle
 10
330.0390786489393
 20
777.9932653158337
 30
0.0
 40
0.1999999999992497
100
AcDbArc
 50
179.9999999998697
 51
0.0
  0
ARC
  5
213
330
1F
100
AcDbEntity
  8
0
  6
Continuous
 62
     2
100
AcDbCircle
 10
332.4390786489391
 20
777.9932653158337
 30
0.0
 40
0.1999999999988518
100
AcDbArc
 50
180.0
 51
0.0
  0
ARC
  5
214
330
1F
100
AcDbEntity
  8
0
  6
Continuous
 62
     2
100
AcDbCircle
 10
334.8390786489401
 20
777.9932653158337
 30
0.0
 40
0.1999999999997613
100
AcDbArc
 50
180.0
 51
0.0
  0
ARC
  5
215
330
1F
100
AcDbEntity
  8
0
  6
Continuous
 62
     2
100
AcDbCircle
 10
337.2390786489402
 20
777.9932653158337
 30
0.0
 40
0.2000000000000455
100
AcDbArc
 50
180.0
 51
0.0
  0
ARC
  5
216
330
1F
100
AcDbEntity
  8
0
  6
Continuous
 62
     2
100
AcDbCircle
 10
313.2390786489402
 20
909.5932663628463
 30
0.0
 40
0.1999999999988518
100
AcDbArc
 50
0.0
 51
180.0
  0
ARC
  5
217
330
1F
100
AcDbEntity
  8
0
  6
Continuous
 62
     2
100
AcDbCircle
 10
315.6390786489392
 20
909.5932663628463
 30
0.0
 40
0.2000000000008981
100
AcDbArc
 50
0.0
 51
180.0
  0
ARC
  5
218
330
1F
100
AcDbEntity
  8
0
  6
Continuous
 62
     2
100
AcDbCircle
 10
318.0390786489393
 20
909.5932663628463
 30
0.0
 40
0.2000000000008981
100
AcDbArc
 50
0.0
 51
180.0
  0
ARC
  5
219
330
1F
100
AcDbEntity
  8
0
  6
Continuous
 62
     2
100
AcDbCircle
 10
320.4390786489391
 20
909.5932663628463
 30
0.0
 40
0.2000000000001023
100
AcDbArc
 50
0.0
 51
180.0
  0
ARC
  5
21A
330
1F
100
AcDbEntity
  8
0
  6
Continuous
 62
     2
100
AcDbCircle
 10
322.8390786489401
 20
909.5932663628463
 30
0.0
 40
0.1999999999992497
100
AcDbArc
 50
0.0
 51
180.0
  0
ARC
  5
21B
330
1F
100
AcDbEntity
  8
0
  6
Continuous
 62
     2
100
AcDbCircle
 10
325.2390786489402
 20
909.5932663628463
 30
0.0
 40
0.1999999999988518
100
AcDbArc
 50
0.0
 51
180.0
  0
ARC
  5
21C
330
1F
100
AcDbEntity
  8
0
  6
Continuous
 62
     2
100
AcDbCircle
 10
327.6390786489403
 20
909.5932663628463
 30
0.0
 40
0.1999999999997613
100
AcDbArc
 50
0.0
 51
180.0
  0
ARC
  5
21D
330
1F
100
AcDbEntity
  8
0
  6
Continuous
 62
     2
100
AcDbCircle
 10
330.0390786489393
 20
909.5932663628463
 30
0.0
 40
0.2000000000008981
100
AcDbArc
 50
0.0
 51
180.0
  0
ARC
  5
21E
330
1F
100
AcDbEntity
  8
0
  6
Continuous
 62
     2
100
AcDbCircle
 10
332.4390786489391
 20
909.5932663628463
 30
0.0
 40
0.2000000000012392
100
AcDbArc
 50
0.0
 51
180.0
  0
ARC
  5
21F
330
1F
100
AcDbEntity
  8
0
  6
Continuous
 62
     2
100
AcDbCircle
 10
334.8390786489401
 20
909.5932663628463
 30
0.0
 40
0.2000000000001023
100
AcDbArc
 50
0.0
 51
180.0
  0
ARC
  5
220
330
1F
100
AcDbEntity
  8
0
  6
Continuous
 62
     2
100
AcDbCircle
 10
337.2390786489402
 20
909.5932663628463
 30
0.0
 40
0.2000000000001023
100
AcDbArc
 50
0.0
 51
180.0
  0
ARC
  5
221
330
1F
100
AcDbEntity
  8
0
  6
Continuous
 62
     2
100
AcDbCircle
 10
615.5586029779492
 20
825.593288102337
 30
0.0
 40
0.2000000000000455
100
AcDbArc
 50
90.0
 51
180.0
  0
ARC
  5
222
330
1F
100
AcDbEntity
  8
0
  6
Continuous
 62
     2
100
AcDbCircle
 10
617.9586029779493
 20
825.593288102337
 30
0.0
 40
0.1999999999998181
100
AcDbArc
 50
0.00000000006514
 51
180.0
  0
ARC
  5
223
330
1F
100
AcDbEntity
  8
0
  6
Continuous
 62
     2
100
AcDbCircle
 10
620.3586029779492
 20
825.593288102337
 30
0.0
 40
0.2000000000000455
100
AcDbArc
 50
0.00000000006514
 51
180.0
  0
ARC
  5
224
330
1F
100
AcDbEntity
  8
0
  6
Continuous
 62
     2
100
AcDbCircle
 10
622.7586029779493
 20
825.593288102337
 30
0.0
 40
0.2000000000000455
100
AcDbArc
 50
0.00000000006514
 51
180.0
  0
ARC
  5
225
330
1F
100
AcDbEntity
  8
0
  6
Continuous
 62
     2
100
AcDbCircle
 10
625.1586029779492
 20
825.593288102337
 30
0.0
 40
0.2000000000000455
100
AcDbArc
 50
0.00000000006514
 51
180.0
  0
ARC
  5
226
330
1F
100
AcDbEntity
  8
0
  6
Continuous
 62
     2
100
AcDbCircle
 10
627.5586029779492
 20
825.593288102337
 30
0.0
 40
0.2000000000000455
100
AcDbArc
 50
0.00000000006514
 51
180.0
  0
ARC
  5
227
330
1F
100
AcDbEntity
  8
0
  6
Continuous
 62
     2
100
AcDbCircle
 10
629.9586029779493
 20
825.593288102337
 30
0.0
 40
0.1999999999998181
100
AcDbArc
 50
0.00000000006514
 51
180.0
  0
ARC
  5
228
330
1F
100
AcDbEntity
  8
0
  6
Continuous
 62
     2
100
AcDbCircle
 10
632.3586029779492
 20
825.593288102337
 30
0.0
 40
0.200000000000955
100
AcDbArc
 50
0.00000000006514
 51
180.0
  0
ARC
  5
229
330
1F
100
AcDbEntity
  8
0
  6
Continuous
 62
     2
100
AcDbCircle
 10
634.7586029779493
 20
825.593288102337
 30
0.0
 40
0.2000000000000455
100
AcDbArc
 50
0.00000000006514
 51
180.0
  0
ARC
  5
22A
330
1F
100
AcDbEntity
  8
0
  6
Continuous
 62
     2
100
AcDbCircle
 10
637.1586029779503
 20
777.9932653158342
 30
0.0
 40
0.200000000000955
100
AcDbArc
 50
180.0000000001303
 51
0.0
  0
ARC
  5
22B
330
1F
100
AcDbEntity
  8
0
  6
Continuous
 62
     2
100
AcDbCircle
 10
634.7586029779493
 20
777.9932653158342
 30
0.0
 40
0.2000000000000455
100
AcDbArc
 50
180.0000000001303
 51
0.0
  0
ARC
  5
22C
330
1F
100
AcDbEntity
  8
0
  6
Continuous
 62
     2
100
AcDbCircle
 10
632.3586029779492
 20
777.9932653158342
 30
0.0
 40
0.2000000000000455
100
AcDbArc
 50
180.0000000001303
 51
0.0
  0
ARC
  5
22D
330
1F
100
AcDbEntity
  8
0
  6
Continuous
 62
     2
100
AcDbCircle
 10
629.9586029779493
 20
777.9932653158342
 30
0.0
 40
0.2000000000000455
100
AcDbArc
 50
180.0000000001303
 51
0.0
  0
ARC
  5
22E
330
1F
100
AcDbEntity
  8
0
  6
Continuous
 62
     2
100
AcDbCircle
 10
627.5586029779492
 20
777.9932653158342
 30
0.0
 40
0.2000000000000455
100
AcDbArc
 50
180.0000000001303
 51
0.0
  0
ARC
  5
22F
330
1F
100
AcDbEntity
  8
0
  6
Continuous
 62
     2
100
AcDbCircle
 10
625.1586029779492
 20
777.9932653158342
 30
0.0
 40
0.1999999999998181
100
AcDbArc
 50
180.0000000001303
 51
0.0
  0
ARC
  5
230
330
1F
100
AcDbEntity
  8
0
  6
Continuous
 62
     2
100
AcDbCircle
 10
622.7586029779493
 20
777.9932653158342
 30
0.0
 40
0.2000000000000455
100
AcDbArc
 50
180.0000000001303
 51
0.0
  0
ARC
  5
231
330
1F
100
AcDbEntity
  8
0
  6
Continuous
 62
     2
100
AcDbCircle
 10
620.3586029779492
 20
777.9932653158342
 30
0.0
 40
0.2000000000000455
100
AcDbArc
 50
180.0000000001303
 51
0.0
  0
ARC
  5
232
330
1F
100
AcDbEntity
  8
0
  6
Continuous
 62
     2
100
AcDbCircle
 10
617.9586029779493
 20
777.9932653158342
 30
0.0
 40
0.2000000000000455
100
AcDbArc
 50
180.0000000001303
 51
0.0
  0
ARC
  5
233
330
1F
100
AcDbEntity
  8
0
  6
Continuous
 62
     2
100
AcDbCircle
 10
615.5586029779492
 20
777.9932653158342
 30
0.0
 40
0.2000000000000455
100
AcDbArc
 50
180.0000000001303
 51
0.0
  0
ARC
  5
234
330
1F
100
AcDbEntity
  8
0
  6
Continuous
 62
     2
100
AcDbCircle
 10
613.1586029779492
 20
777.9932653158342
 30
0.0
 40
0.1999999999998181
100
AcDbArc
 50
180.0000000001303
 51
0.0
  0
ARC
  5
235
330
1F
100
AcDbEntity
  8
0
  6
Continuous
 62
     2
100
AcDbCircle
 10
615.5586029779492
 20
900.993135519956
 30
0.0
 40
0.2000000000002728
100
AcDbArc
 50
270.0
 51
359.9999999999674
  0
ARC
  5
236
330
1F
100
AcDbEntity
  8
0
  6
Continuous
 62
     2
100
AcDbCircle
 10
617.9586029779493
 20
900.993135519956
 30
0.0
 40
0.2000000000000455
100
AcDbArc
 50
180.0
 51
0.0
  0
ARC
  5
237
330
1F
100
AcDbEntity
  8
0
  6
Continuous
 62
     2
100
AcDbCircle
 10
620.3586029779492
 20
900.993135519956
 30
0.0
 40
0.2000000000000455
100
AcDbArc
 50
180.0
 51
0.0
  0
ARC
  5
238
330
1F
100
AcDbEntity
  8
0
  6
Continuous
 62
     2
100
AcDbCircle
 10
622.7586029779493
 20
900.993135519956
 30
0.0
 40
0.2000000000000455
100
AcDbArc
 50
180.0
 51
0.0
  0
ARC
  5
239
330
1F
100
AcDbEntity
  8
0
  6
Continuous
 62
     2
100
AcDbCircle
 10
625.1586029779492
 20
900.993135519956
 30
0.0
 40
0.1999999999998181
100
AcDbArc
 50
180.0
 51
0.0
  0
ARC
  5
23A
330
1F
100
AcDbEntity
  8
0
  6
Continuous
 62
     2
100
AcDbCircle
 10
627.5586029779492
 20
900.993135519956
 30
0.0
 40
0.2000000000000455
100
AcDbArc
 50
179.9999999999674
 51
0.0
  0
ARC
  5
23B
330
1F
100
AcDbEntity
  8
0
  6
Continuous
 62
     2
100
AcDbCircle
 10
629.9586029779493
 20
900.993135519956
 30
0.0
 40
0.2000000000000455
100
AcDbArc
 50
180.0
 51
0.0
  0
ARC
  5
23C
330
1F
100
AcDbEntity
  8
0
  6
Continuous
 62
     2
100
AcDbCircle
 10
632.3586029779492
 20
900.993135519956
 30
0.0
 40
0.2000000000000455
100
AcDbArc
 50
180.0
 51
0.0
  0
ARC
  5
23D
330
1F
100
AcDbEntity
  8
0
  6
Continuous
 62
     2
100
AcDbCircle
 10
634.7586029779493
 20
900.993135519956
 30
0.0
 40
0.199999999999136
100
AcDbArc
 50
180.0
 51
0.0
  0
ARC
  5
23E
330
1F
100
AcDbEntity
  8
0
  6
Continuous
 62
     2
100
AcDbCircle
 10
634.0917511775092
 20
889.7932653158321
 30
0.0
 40
0.1666666666665472
100
AcDbArc
 50
299.9816393690811
 51
60.01836063091891
  0
ARC
  5
23F
330
1F
100
AcDbEntity
  8
0
  6
Continuous
 62
     2
100
AcDbCircle
 10
634.0917511775092
 20
889.7932653158321
 30
0.0
 40
0.0666666666670188
100
AcDbArc
 50
299.981639368973
 51
60.01836063092932
  0
ARC
  5
240
330
1F
100
AcDbEntity
  8
0
  6
Continuous
 62
     2
100
AcDbCircle
 10
629.6488408134512
 20
847.7932881023371
 30
0.0
 40
2.100000000001318
100
AcDbArc
 50
192.3736251161756
 51
270.0
  0
ARC
  5
241
330
1F
100
AcDbEntity
  8
0
  6
Continuous
 62
     2
100
AcDbCircle
 10
629.6488408134512
 20
847.7932881023371
 30
0.0
 40
2.100000000000136
100
AcDbArc
 50
90.0
 51
167.626374883813
  0
ARC
  5
242
330
1F
100
AcDbEntity
  8
0
  6
Continuous
 62
     2
100
AcDbCircle
 10
628.4252696446163
 20
892.2157654759992
 30
0.0
 40
0.3333333333332005
100
AcDbArc
 50
60.01836063120015
 51
180.0
  0
ARC
  5
243
330
1F
100
AcDbEntity
  8
0
  6
Continuous
 62
     2
100
AcDbCircle
 10
628.4252696446163
 20
887.3707651556641
 30
0.0
 40
0.3333333333330302
100
AcDbArc
 50
180.0
 51
299.9816393689984
  0
ARC
  5
244
330
1F
100
AcDbEntity
  8
0
  6
Continuous
 62
     2
100
AcDbCircle
 10
629.7586029779493
 20
891.4465347067692
 30
0.0
 40
0.3333333333335111
100
AcDbArc
 50
240.0183606311858
 51
60.01836063101135
  0
ARC
  5
245
330
1F
100
AcDbEntity
  8
0
  6
Continuous
 62
     2
100
AcDbCircle
 10
629.7586029779493
 20
889.7932653158321
 30
0.0
 40
0.3333333333328028
100
AcDbArc
 50
270.0
 51
90.0
  0
ARC
  5
246
330
1F
100
AcDbEntity
  8
0
  6
Continuous
 62
     2
100
AcDbCircle
 10
629.7586029779493
 20
888.1399959248952
 30
0.0
 40
0.3333333333331777
100
AcDbArc
 50
299.9816393690277
 51
119.9816393687426
  0
ARC
  5
247
330
1F
100
AcDbEntity
  8
0
  6
Continuous
 62
     2
100
AcDbCircle
 10
629.6488408134512
 20
847.7932881023371
 30
0.0
 40
3.0
100
AcDbArc
 50
90.0
 51
270.0
  0
ARC
  5
248
330
1F
100
AcDbEntity
  8
0
  6
Continuous
 62
     2
100
AcDbCircle
 10
617.4254547783892
 20
889.7932653158321
 30
0.0
 40
0.1666666666659791
100
AcDbArc
 50
119.9816393687426
 51
240.0183606312965
  0
ARC
  5
249
330
1F
100
AcDbEntity
  8
0
  6
Continuous
 62
     2
100
AcDbCircle
 10
617.4254547783892
 20
889.7932653158321
 30
0.0
 40
0.0666666666657766
100
AcDbArc
 50
119.9816393686866
 51
240.0183606317529
  0
ARC
  5
24A
330
1F
100
AcDbEntity
  8
0
  6
Continuous
 62
     2
100
AcDbCircle
 10
624.5488408134502
 20
847.7932881023371
 30
0.0
 40
3.0
100
AcDbArc
 50
180.0
 51
270.0
  0
ARC
  5
24B
330
1F
100
AcDbEntity
  8
0
  6
Continuous
 62
     2
100
AcDbCircle
 10
624.5488408134502
 20
847.7932881023371
 30
0.0
 40
2.100000000000136
100
AcDbArc
 50
90.0
 51
270.0
  0
ARC
  5
24C
330
1F
100
AcDbEntity
  8
0
  6
Continuous
 62
     2
100
AcDbCircle
 10
627.1603034321413
 20
893.0244826278672
 30
0.0
 40
0.2649662124749739
100
AcDbArc
 50
0.0
 51
150.000000000214
  0
ARC
  5
24D
330
1F
100
AcDbEntity
  8
0
  6
Continuous
 62
     2
100
AcDbCircle
 10
627.0919363112832
 20
886.6015343864342
 30
0.0
 40
0.3333333333339397
100
AcDbArc
 50
180.0
 51
0.0
  0
ARC
  5
24E
330
1F
100
AcDbEntity
  8
0
  6
Continuous
 62
     2
100
AcDbCircle
 10
623.0919363112832
 20
892.2157654759992
 30
0.0
 40
0.3333333333330302
100
AcDbArc
 50
0.0
 51
180.0
  0
ARC
  5
24F
330
1F
100
AcDbEntity
  8
0
  6
Continuous
 62
     2
100
AcDbCircle
 10
623.4252696446163
 20
887.5632864638649
 30
0.0
 40
0.6666666666669698
100
AcDbArc
 50
180.0
 51
240.0183606311735
  0
ARC
  5
250
330
1F
100
AcDbEntity
  8
0
  6
Continuous
 62
     2
100
AcDbCircle
 10
621.7586029779493
 20
888.1399959248952
 30
0.0
 40
0.3333333333330302
100
AcDbArc
 50
180.0
 51
0.0
  0
ARC
  5
251
330
1F
100
AcDbEntity
  8
0
  6
Continuous
 62
     2
100
AcDbCircle
 10
621.7586029779493
 20
891.4465347067692
 30
0.0
 40
0.3333333333339397
100
AcDbArc
 50
0.0
 51
180.0
  0
ARC
  5
252
330
1F
100
AcDbEntity
  8
0
  6
Continuous
 62
     2
100
AcDbCircle
 10
624.4252696446163
 20
888.1408503884652
 30
0.0
 40
0.3333333333330302
100
AcDbArc
 50
180.0
 51
0.0
  0
ARC
  5
253
330
1F
100
AcDbEntity
  8
0
  6
Continuous
 62
     2
100
AcDbCircle
 10
624.3569025237582
 20
893.0244826278672
 30
0.0
 40
0.264966212474794
100
AcDbArc
 50
29.99999999990891
 51
180.0
  0
ARC
  5
254
330
1F
100
AcDbEntity
  8
0
  6
Continuous
 62
     2
100
AcDbCircle
 10
625.7586029779493
 20
890.1265986491649
 30
0.0
 40
0.1666666666660869
100
AcDbArc
 50
209.9999999999045
 51
330.0000000002518
  0
ARC
  5
255
330
1F
100
AcDbEntity
  8
0
  6
Continuous
 62
     2
100
AcDbCircle
 10
625.4252696446163
 20
886.0246113095109
 30
0.0
 40
0.3333333333331172
100
AcDbArc
 50
240.0183606311468
 51
60.01836063120015
  0
ARC
  5
256
330
1F
100
AcDbEntity
  8
0
  6
Continuous
 62
     2
100
AcDbCircle
 10
637.1586029779503
 20
909.5932663628463
 30
0.0
 40
0.1999999999989086
100
AcDbArc
 50
0.0
 51
180.0
  0
ARC
  5
257
330
1F
100
AcDbEntity
  8
0
  6
Continuous
 62
     2
100
AcDbCircle
 10
634.7586029779493
 20
909.5932663628463
 30
0.0
 40
0.2000000000000455
100
AcDbArc
 50
0.0
 51
180.0
  0
ARC
  5
258
330
1F
100
AcDbEntity
  8
0
  6
Continuous
 62
     2
100
AcDbCircle
 10
632.3586029779492
 20
909.5932663628463
 30
0.0
 40
0.200000000000955
100
AcDbArc
 50
0.0
 51
180.0
  0
ARC
  5
259
330
1F
100
AcDbEntity
  8
0
  6
Continuous
 62
     2
100
AcDbCircle
 10
629.9586029779493
 20
909.5932663628463
 30
0.0
 40
0.1999999999998181
100
AcDbArc
 50
0.0
 51
180.0
  0
ARC
  5
25A
330
1F
100
AcDbEntity
  8
0
  6
Continuous
 62
     2
100
AcDbCircle
 10
627.5586029779492
 20
909.5932663628463
 30
0.0
 40
0.2000000000000455
100
AcDbArc
 50
0.0
 51
180.0
  0
ARC
  5
25B
330
1F
100
AcDbEntity
  8
0
  6
Continuous
 62
     2
100
AcDbCircle
 10
625.1586029779492
 20
909.5932663628463
 30
0.0
 40
0.2000000000000455
100
AcDbArc
 50
0.0
 51
180.0
  0
ARC
  5
25C
330
1F
100
AcDbEntity
  8
0
  6
Continuous
 62
     2
100
AcDbCircle
 10
622.7586029779493
 20
909.5932663628463
 30
0.0
 40
0.2000000000000455
100
AcDbArc
 50
0.0
 51
180.0
  0
ARC
  5
25D
330
1F
100
AcDbEntity
  8
0
  6
Continuous
 62
     2
100
AcDbCircle
 10
620.3586029779492
 20
909.5932663628463
 30
0.0
 40
0.2000000000000455
100
AcDbArc
 50
0.0
 51
180.0
  0
ARC
  5
25E
330
1F
100
AcDbEntity
  8
0
  6
Continuous
 62
     2
100
AcDbCircle
 10
617.9586029779493
 20
909.5932663628463
 30
0.0
 40
0.1999999999998181
100
AcDbArc
 50
0.0
 51
180.0
  0
ARC
  5
25F
330
1F
100
AcDbEntity
  8
0
  6
Continuous
 62
     2
100
AcDbCircle
 10
615.5586029779492
 20
909.5932663628463
 30
0.0
 40
0.2000000000000455
100
AcDbArc
 50
0.0
 51
180.0
  0
ARC
  5
260
330
1F
100
AcDbEntity
  8
0
  6
Continuous
 62
     2
100
AcDbCircle
 10
613.1586029779492
 20
909.5932663628463
 30
0.0
 40
0.2000000000000455
100
AcDbArc
 50
0.0
 51
180.0
  0
ARC
  5
261
330
1F
100
AcDbEntity
  8
0
  6
Continuous
 62
     7
100
AcDbCircle
 10
313.0454276464452
 20
912.4134289078919
 30
0.0
 40
8.000000000000373
100
AcDbArc
 50
91.01780008473325
 51
180.0156864189051
  0
ARC
  5
262
330
1F
100
AcDbEntity
  8
0
  6
Continuous
 62
     7
100
AcDbCircle
 10
312.7988408134622
 20
926.2932653158296
 30
0.0
 40
5.88202664517332
100
AcDbArc
 50
271.0178000847434
 51
318.0461484246821
  0
ARC
  5
263
330
1F
100
AcDbEntity
  8
0
  6
Continuous
 62
     2
100
AcDbCircle
 10
312.7915460192942
 20
926.3030004272484
 30
0.0
 40
13.89396693189673
100
AcDbArc
 50
271.020826191422
 51
317.8694322700669
  0
ARC
  5
264
330
1F
100
AcDbEntity
  8
0
  6
Continuous
 62
     7
100
AcDbCircle
 10
325.9948706709483
 20
927.5052201785552
 30
0.0
 40
7.999999999999807
100
AcDbArc
 50
88.93391360493423
 51
184.1150676760234
  0
SPLINE
  5
265
330
1F
100
AcDbEntity
  8
0
  6
Continuous
 62
     7
100
AcDbSpline
210
0.0
220
0.0
230
1.0
 70
     8
 71
     3
 72
    15
 73
    11
 74
     9
 42
0.000000001
 43
0.0000000001
 44
0.00000001
 40
0.0
 40
0.0
 40
0.0
 40
0.0
 40
1.372142866321039
 40
2.744210418753783
 40
4.116220329249108
 40
5.488199044232325
 40
6.860177759215423
 40
8.232187669710848
 40
9.604255222143951
 40
10.97639808846522
 40
10.97639808846522
 40
10.97639808846522
 40
10.97639808846522
 10
641.2999069473583
 20
935.7932653158562
 30
0.0
 10
641.758021011403
 20
935.76722093875
 30
0.0
 10
642.6742239931975
 20
935.7151335996621
 30
0.0
 10
643.9956741638223
 20
935.2989984715671
 30
0.0
 10
645.2135861074091
 20
934.6522062896922
 30
0.0
 10
646.2807024176383
 20
933.7751269200418
 30
0.0
 10
647.1577817872897
 20
932.7080106098132
 30
0.0
 10
647.8045739691638
 20
931.4900986662257
 30
0.0
 10
648.220709097259
 20
930.1686484956009
 30
0.0
 10
648.2727964363472
 20
929.2524455138065
 30
0.0
 10
648.2988408134531
 20
928.7943314497613
 30
0.0
 11
641.2999069473583
 21
935.7932653158562
 31
0.0
 11
642.6654447061973
 21
935.658793461872
 31
0.0
 11
643.9784441092062
 21
935.2605448691409
 31
0.0
 11
645.1884664528056
 21
934.6138168529072
 31
0.0
 11
646.2490298413327
 21
933.7434543437361
 31
0.0
 11
647.1193923505041
 21
932.6828909552094
 31
0.0
 11
647.7661203667377
 21
931.4728686116098
 31
0.0
 11
648.164368959469
 21
930.1598692086005
 31
0.0
 11
648.2988408134531
 21
928.7943314497613
 31
0.0
  0
SPLINE
  5
266
330
1F
100
AcDbEntity
  8
0
  6
Continuous
 62
     2
100
AcDbSpline
210
0.0
220
0.0
230
1.0
 70
     8
 71
     3
 72
    27
 73
    23
 74
    21
 42
0.000000001
 43
0.0000000001
 44
0.00000001
 40
0.0
 40
0.0
 40
0.0
 40
0.0
 40
0.1567481033167878
 40
0.3091190034952941
 40
0.5723432438293462
 40
0.8543600864176322
 40
1.115278954568286
 40
1.402919321718778
 40
1.66365085733185
 40
1.955881170376726
 40
2.218374255870631
 40
2.514405311589159
 40
2.780110437778486
 40
3.079751076951801
 40
3.350022858995268
 40
3.653310153482749
 40
4.275651036184108
 40
4.831389634786913
 40
5.481938380370327
 40
6.064097307625586
 40
6.747506748506117
 40
7.384187261033695
 40
7.384187261033695
 40
7.384187261033695
 40
7.384187261033695
 10
625.8069269389603
 20
756.5725705906497
 30
0.0
 10
625.811521638744
 20
756.6246177526493
 30
0.0
 10
625.8205827453104
 20
756.7272586542572
 30
0.0
 10
625.8392028274038
 20
756.9171326242891
 30
0.0
 10
625.86570243213
 20
757.1481736346591
 30
0.0
 10
625.902241291903
 20
757.4144219778076
 30
0.0
 10
625.9458976632044
 20
757.6878369685691
 30
0.0
 10
625.9943400529985
 20
757.953241360455
 30
0.0
 10
626.0507639024834
 20
758.2277223624328
 30
0.0
 10
626.1114450925423
 20
758.4927081922971
 30
0.0
 10
626.1809457107054
 20
758.7676652959722
 30
0.0
 10
626.2542857100901
 20
759.0324675299383
 30
0.0
 10
626.3372046173909
 20
759.3073813538261
 30
0.0
 10
626.4237293239611
 20
759.5721705025383
 30
0.0
 10
626.520505843619
 20
759.8467026656729
 30
0.0
 10
626.6617465335479
 20
760.2195093949344
 30
0.0
 10
626.8539559786311
 20
760.6746137859222
 30
0.0
 10
627.1177721558067
 20
761.2242985367268
 30
0.0
 10
627.4016036597939
 20
761.7489376371554
 30
0.0
 10
627.7341487685479
 20
762.2943293609192
 30
0.0
 10
628.0885229817163
 20
762.8210988714831
 30
0.0
 10
628.3675458106604
 20
763.1616230795138
 30
0.0
 10
628.5021187651491
 20
763.3258581915181
 30
0.0
 11
625.8069269389603
 21
756.5725705906497
 31
0.0
 11
625.8209670117535
 21
756.7286886364316
 31
0.0
 11
625.8359010510442
 21
756.8803259197665
 31
0.0
 11
625.8659210985597
 21
757.141832702582
 31
0.0
 11
625.9042576682873
 21
757.4212317128372
 31
0.0
 11
625.9453986299408
 21
757.6788866701638
 31
0.0
 11
625.9970469171083
 21
757.9618521013615
 31
0.0
 11
626.0495459223224
 21
758.2172435423288
 31
0.0
 11
626.1147785354353
 21
758.5021001063346
 31
0.0
 11
626.179104871798
 21
758.7565892856536
 31
0.0
 11
626.2581203176671
 21
759.0418802691756
 31
0.0
 11
626.3348473019656
 21
759.2962661649708
 31
0.0
 11
626.4279178553131
 21
759.5810860813613
 31
0.0
 11
626.5177731706956
 21
759.8359838226193
 31
0.0
 11
626.6252224247132
 21
760.1195994795672
 31
0.0
 11
626.8673708686165
 21
760.6928989701279
 31
0.0
 11
627.1077891253813
 21
761.1939423340028
 31
0.0
 11
627.4175551758253
 21
761.7660075977888
 31
0.0
 11
627.7199884288693
 21
762.2634441723609
 31
0.0
 11
628.1060995039659
 21
762.8273295360427
 31
0.0
 11
628.5021187651491
 21
763.3258581915181
 31
0.0
  0
SPLINE
  5
267
330
1F
100
AcDbEntity
  8
0
  6
Continuous
 62
     2
100
AcDbSpline
210
0.0
220
0.0
230
1.0
 70
     8
 71
     3
 72
    27
 73
    23
 74
    21
 42
0.000000001
 43
0.0000000001
 44
0.00000001
 40
0.0
 40
0.0
 40
0.0
 40
0.0
 40
0.1567481033165614
 40
0.3091190034948413
 40
0.5723432438290064
 40
0.8543600864175176
 40
1.115278954568171
 40
1.402919321718663
 40
1.663650857331624
 40
1.955881170376389
 40
2.218374255870294
 40
2.514405311588932
 40
2.780110437778367
 40
3.079751076951575
 40
3.350022858995042
 40
3.653310153482522
 40
4.275651036183672
 40
4.831389634786682
 40
5.481938380369796
 40
6.064097307625249
 40
6.747506748505686
 40
7.384187261033175
 40
7.384187261033175
 40
7.384187261033175
 40
7.384187261033175
 10
625.8069269389603
 20
931.013960041018
 30
0.0
 10
625.8115216387439
 20
930.9619128790183
 30
0.0
 10
625.8205827453106
 20
930.8592719774108
 30
0.0
 10
625.8392028274037
 20
930.6693980073787
 30
0.0
 10
625.86570243213
 20
930.4383569970087
 30
0.0
 10
625.902241291903
 20
930.1721086538598
 30
0.0
 10
625.9458976632044
 20
929.8986936630988
 30
0.0
 10
625.9943400529984
 20
929.6332892712128
 30
0.0
 10
626.0507639024834
 20
929.3588082692348
 30
0.0
 10
626.1114450925422
 20
929.0938224393708
 30
0.0
 10
626.1809457107054
 20
928.8188653356963
 30
0.0
 10
626.2542857100902
 20
928.5540631017292
 30
0.0
 10
626.3372046173906
 20
928.279149277842
 30
0.0
 10
626.4237293239612
 20
928.0143601291294
 30
0.0
 10
626.520505843619
 20
927.7398279659951
 30
0.0
 10
626.6617465335477
 20
927.3670212367331
 30
0.0
 10
626.8539559786315
 20
926.911916845746
 30
0.0
 10
627.1177721558066
 20
926.3622320949412
 30
0.0
 10
627.401603659794
 20
925.837592994513
 30
0.0
 10
627.7341487685478
 20
925.2922012707485
 30
0.0
 10
628.0885229817161
 20
924.7654317601852
 30
0.0
 10
628.3675458106607
 20
924.4249075521544
 30
0.0
 10
628.5021187651491
 20
924.2606724401501
 30
0.0
 11
625.8069269389603
 21
931.013960041018
 31
0.0
 11
625.8209670117535
 21
930.8578419952363
 31
0.0
 11
625.8359010510442
 21
930.7062047119016
 31
0.0
 11
625.8659210985597
 21
930.444697929086
 31
0.0
 11
625.9042576682873
 21
930.1652989188306
 31
0.0
 11
625.9453986299408
 21
929.9076439615039
 31
0.0
 11
625.9970469171083
 21
929.6246785303063
 31
0.0
 11
626.0495459223224
 21
929.3692870893391
 31
0.0
 11
626.1147785354353
 21
929.0844305253333
 31
0.0
 11
626.179104871798
 21
928.8299413460144
 31
0.0
 11
626.2581203176671
 21
928.5446503624922
 31
0.0
 11
626.3348473019656
 21
928.290264466697
 31
0.0
 11
626.4279178553131
 21
928.0054445503066
 31
0.0
 11
626.5177731706956
 21
927.7505468090486
 31
0.0
 11
626.6252224247132
 21
927.4669311521006
 31
0.0
 11
626.8673708686165
 21
926.8936316615402
 31
0.0
 11
627.1077891253813
 21
926.392588297665
 31
0.0
 11
627.4175551758253
 21
925.8205230338795
 31
0.0
 11
627.7199884288693
 21
925.3230864593071
 31
0.0
 11
628.1060995039659
 21
924.7592010956254
 31
0.0
 11
628.5021187651491
 21
924.2606724401501
 31
0.0
  0
SPLINE
  5
268
330
1F
100
AcDbEntity
  8
0
  6
Continuous
 62
     7
100
AcDbSpline
210
0.0
220
0.0
230
1.0
 70
     8
 71
     3
 72
    16
 73
    12
 74
    10
 42
0.000000001
 43
0.0000000001
 44
0.00000001
 40
0.0
 40
0.0
 40
0.0
 40
0.0
 40
1.123383780416037
 40
1.866293119503486
 40
2.47986115502059
 40
3.061248477348931
 40
3.635381308561946
 40
4.346899139528027
 40
5.052427126006686
 40
5.753195761310055
 40
6.451323708916443
 40
6.451323708916443
 40
6.451323708916443
 40
6.451323708916443
 10
323.0955627897313
 20
763.325858191525
 30
0.0
 10
322.7213410090926
 20
763.3117503079472
 30
0.0
 10
322.0996411528852
 20
763.28831269741
 30
0.0
 10
321.2722831414913
 20
763.3062059633062
 30
0.0
 10
320.6299870376602
 20
763.3842026968011
 30
0.0
 10
320.0532268185819
 20
763.5109477539231
 30
0.0
 10
319.4589407762636
 20
763.698164907834
 30
0.0
 10
318.8474736710244
 20
763.9604295703447
 30
0.0
 10
318.2345823371417
 20
764.3130721117076
 30
0.0
 10
317.6662501728808
 20
764.7287949960817
 30
0.0
 10
317.3373478709989
 20
765.0601984267925
 30
0.0
 10
317.1732071583253
 20
765.2255873533021
 30
0.0
 11
323.0955627897313
 21
763.325858191525
 31
0.0
 11
321.9725521641504
 21
763.2969056336656
 31
0.0
 11
321.2300201242749
 21
763.3205796001924
 31
0.0
 11
320.6210297322061
 21
763.3953889384162
 31
0.0
 11
320.0531190598671
 21
763.5198424931034
 31
0.0
 11
319.5055467217603
 21
763.6924491064763
 31
0.0
 11
318.851954232566
 21
763.9736509611561
 31
0.0
 11
318.2400479409362
 21
764.3248495257842
 31
0.0
 11
317.6778059986019
 21
764.7431325416655
 31
0.0
 11
317.1732071583253
 21
765.2255873533021
 31
0.0
  0
SPLINE
  5
269
330
1F
100
AcDbEntity
  8
0
  6
Continuous
 62
     7
100
AcDbSpline
210
0.0
220
0.0
230
1.0
 70
     8
 71
     3
 72
    19
 73
    15
 74
    13
 42
0.000000001
 43
0.0000000001
 44
0.00000001
 40
0.0
 40
0.0
 40
0.0
 40
0.0
 40
0.3001200288049805
 40
0.5994222787650184
 40
0.8646168247452675
 40
1.160587620003795
 40
1.409961641160998
 40
1.693428776919647
 40
1.93123537435171
 40
2.205034410437904
 40
2.696739851381811
 40
3.184858855054771
 40
3.656054029273287
 40
4.133362584636759
 40
4.133362584636759
 40
4.133362584636759
 40
4.133362584636759
 10
317.1732071538531
 20
765.2255873492647
 30
0.0
 10
317.229174831853
 20
765.1426365099649
 30
0.0
 10
317.3409576727043
 20
764.9769608510359
 30
0.0
 10
317.4848479756206
 20
764.7269736875842
 30
0.0
 10
317.6156466689233
 20
764.4716206023709
 30
0.0
 10
317.7258252183713
 20
764.2247529512451
 30
0.0
 10
317.825488214088
 20
763.9669887892204
 30
0.0
 10
317.9060695745145
 20
763.72293683217
 30
0.0
 10
317.9767982634899
 20
763.4674341766754
 30
0.0
 10
318.0504598422373
 20
763.1410861162797
 30
0.0
 10
318.1132591114151
 20
762.7272577904089
 30
0.0
 10
318.1407638095709
 20
762.2438467345243
 30
0.0
 10
318.1278205867881
 20
761.7641936886287
 30
0.0
 10
318.0836266810502
 20
761.4509144978712
 30
0.0
 10
318.0613872996503
 20
761.2932653158355
 30
0.0
 11
317.1732071538531
 21
765.2255873492647
 31
0.0
 11
317.3380953623314
 21
764.9748207031503
 31
0.0
 11
317.4882371261253
 21
764.71590124062
 31
0.0
 11
317.6089536294562
 21
764.4797748478429
 31
0.0
 11
317.7296398595313
 21
764.2095276538168
 31
0.0
 11
317.8195580280799
 21
763.9769290174829
 31
0.0
 11
317.9084385988401
 21
763.707756467851
 31
0.0
 11
317.9718786359578
 21
763.478568030849
 31
0.0
 11
318.0321773454123
 21
763.2114913039859
 31
0.0
 11
318.1057552070935
 21
762.7253220539504
 31
0.0
 11
318.1341391109613
 21
762.2380290040594
 31
0.0
 11
318.1190780917186
 21
761.7670745916339
 31
0.0
 11
318.0613872996503
 21
761.2932653158355
 31
0.0
  0
SPLINE
  5
26A
330
1F
100
AcDbEntity
  8
0
  6
Continuous
 62
     7
100
AcDbSpline
210
0.0
220
0.0
230
1.0
 70
     8
 71
     3
 72
    15
 73
    11
 74
     9
 42
0.000000001
 43
0.0000000001
 44
0.00000001
 40
0.0
 40
0.0
 40
0.0
 40
0.0
 40
1.372021433384857
 40
2.743873489505707
 40
4.115595912505184
 40
5.487248178726575
 40
6.858900444947542
 40
8.230622867946668
 40
9.602474924067664
 40
10.97449635745319
 40
10.97449635745319
 40
10.97449635745319
 40
10.97449635745319
 10
303.2988408134402
 20
758.7908665906571
 30
0.0
 10
303.3248754573055
 20
758.3327930678079
 30
0.0
 10
303.3769415454298
 20
757.4167025731191
 30
0.0
 10
303.7929485650808
 20
756.0954348442331
 30
0.0
 10
304.4395656329016
 20
754.877742052141
 30
0.0
 10
305.3164300267744
 20
753.8108545291623
 30
0.0
 10
306.383317549753
 20
752.9339901352896
 30
0.0
 10
307.6010103418445
 20
752.2873730674685
 30
0.0
 10
308.922278070731
 20
751.8713660478174
 30
0.0
 10
309.83836856542
 20
751.8192999596937
 30
0.0
 10
310.2964420882693
 20
751.7932653158282
 30
0.0
 11
303.2988408134402
 21
758.7908665906571
 31
0.0
 11
303.433273295265
 21
757.4254469752156
 31
0.0
 11
303.8314077805692
 21
756.1126381540353
 31
0.0
 11
304.4779587250796
 21
754.9028471446437
 31
0.0
 11
305.3481000012728
 21
753.8425245036606
 31
0.0
 11
306.4084226422556
 21
752.9723832274675
 31
0.0
 11
307.6182136516467
 21
752.325832282957
 31
0.0
 11
308.9310224728271
 21
751.9276977976529
 31
0.0
 11
310.2964420882693
 21
751.7932653158282
 31
0.0
  0
SPLINE
  5
26B
330
1F
100
AcDbEntity
  8
0
  6
Continuous
 62
     2
100
AcDbSpline
210
0.0
220
0.0
230
1.0
 70
     8
 71
     3
 72
    27
 73
    23
 74
    21
 42
0.000000001
 43
0.0000000001
 44
0.00000001
 40
0.0
 40
0.0
 40
0.0
 40
0.0
 40
0.1567481033167827
 40
0.3091190034952054
 40
0.5723432438293095
 40
0.8543600864176649
 40
1.11527895456822
 40
1.40291932171865
 40
1.663650857331711
 40
1.955881170376561
 40
2.21837425587055
 40
2.514405311589351
 40
2.780110437778416
 40
3.079751076952014
 40
3.35002285899516
 40
3.653310153482901
 40
4.275651036183973
 40
4.83138963478668
 40
5.481938380370202
 40
6.064097307625254
 40
6.747506748505945
 40
7.384187261033487
 40
7.384187261033487
 40
7.384187261033487
 40
7.384187261033487
 10
325.7907546879283
 20
756.5725705906497
 30
0.0
 10
325.7861599881444
 20
756.6246177526492
 30
0.0
 10
325.7770988815779
 20
756.7272586542571
 30
0.0
 10
325.7584787994863
 20
756.9171326242894
 30
0.0
 10
325.7319791947587
 20
757.1481736346589
 30
0.0
 10
325.6954403349853
 20
757.4144219778079
 30
0.0
 10
325.6517839636849
 20
757.6878369685688
 30
0.0
 10
325.603341573891
 20
757.9532413604551
 30
0.0
 10
325.5469177244063
 20
758.2277223624332
 30
0.0
 10
325.4862365343473
 20
758.4927081922971
 30
0.0
 10
325.4167359161843
 20
758.7676652959723
 30
0.0
 10
325.3433959167973
 20
759.0324675299381
 30
0.0
 10
325.2604770094993
 20
759.3073813538264
 30
0.0
 10
325.1739523029264
 20
759.572170502538
 30
0.0
 10
325.0771757832709
 20
759.8467026656732
 30
0.0
 10
324.9359350933398
 20
760.2195093949339
 30
0.0
 10
324.7437256482585
 20
760.6746137859224
 30
0.0
 10
324.4799094710826
 20
761.2242985367269
 30
0.0
 10
324.1960779670954
 20
761.7489376371552
 30
0.0
 10
323.8635328583418
 20
762.2943293609196
 30
0.0
 10
323.509158645173
 20
762.8210988714827
 30
0.0
 10
323.2301358162288
 20
763.1616230795138
 30
0.0
 10
323.0955628617403
 20
763.3258581915181
 30
0.0
 11
325.7907546879283
 21
756.5725705906497
 31
0.0
 11
325.7767146151351
 21
756.7286886364316
 31
0.0
 11
325.7617805758453
 21
756.8803259197665
 31
0.0
 11
325.7317605283293
 21
757.141832702582
 31
0.0
 11
325.6934239586012
 21
757.4212317128372
 31
0.0
 11
325.6522829969483
 21
757.6788866701638
 31
0.0
 11
325.6006347097812
 21
757.9618521013615
 31
0.0
 11
325.5481357045671
 21
758.2172435423288
 31
0.0
 11
325.4829030914543
 21
758.5021001063346
 31
0.0
 11
325.4185767550914
 21
758.7565892856536
 31
0.0
 11
325.3395613092212
 21
759.0418802691756
 31
0.0
 11
325.2628343249236
 21
759.2962661649708
 31
0.0
 11
325.1697637715752
 21
759.5810860813613
 31
0.0
 11
325.0799084561936
 21
759.8359838226193
 31
0.0
 11
324.9724592021753
 21
760.1195994795672
 31
0.0
 11
324.7303107582728
 21
760.6928989701279
 31
0.0
 11
324.4898925015082
 21
761.1939423340028
 31
0.0
 11
324.1801264510639
 21
761.7660075977888
 31
0.0
 11
323.8776931980203
 21
762.2634441723609
 31
0.0
 11
323.4915821229235
 21
762.8273295360427
 31
0.0
 11
323.0955628617403
 21
763.3258581915181
 31
0.0
  0
SPLINE
  5
26C
330
1F
100
AcDbEntity
  8
0
  6
Continuous
 62
     7
100
AcDbSpline
210
0.0
220
0.0
230
1.0
 70
     8
 71
     3
 72
    16
 73
    12
 74
    10
 42
0.000000001
 43
0.0000000001
 44
0.00000001
 40
0.0
 40
0.0
 40
0.0
 40
0.0
 40
1.123383780416262
 40
1.866293119503718
 40
2.479861155020624
 40
3.061248477348855
 40
3.635381308562175
 40
4.346899139528099
 40
5.052427126005828
 40
5.753195761309723
 40
6.451323708916514
 40
6.451323708916514
 40
6.451323708916514
 40
6.451323708916514
 10
628.5021188371582
 20
924.2606724401431
 30
0.0
 10
628.876340617797
 20
924.274780323721
 30
0.0
 10
629.4980404740047
 20
924.2982179342584
 30
0.0
 10
630.3253984853982
 20
924.2803246683611
 30
0.0
 10
630.9676945892294
 20
924.2023279348671
 30
0.0
 10
631.5444548083076
 20
924.0755828777449
 30
0.0
 10
632.1387408506257
 20
923.8883657238339
 30
0.0
 10
632.7502079558651
 20
923.6261010613235
 30
0.0
 10
633.3630992897466
 20
923.2734585199594
 30
0.0
 10
633.9314314540086
 20
922.8577356355869
 30
0.0
 10
634.2603337558907
 20
922.5263322048756
 30
0.0
 10
634.4244744685643
 20
922.3609432783658
 30
0.0
 11
628.5021188371582
 21
924.2606724401431
 31
0.0
 11
629.6251294627392
 21
924.2896249980024
 31
0.0
 11
630.3676615026147
 21
924.2659510314753
 31
0.0
 11
630.9766518946833
 21
924.1911416932518
 31
0.0
 11
631.5445625670222
 21
924.0666881385646
 31
0.0
 11
632.0921349051293
 21
923.8940815251916
 31
0.0
 11
632.7457273943236
 21
923.6128796705118
 31
0.0
 11
633.3576336859521
 21
923.2616811058836
 31
0.0
 11
633.9198756282874
 21
922.8433980900026
 31
0.0
 11
634.4244744685643
 21
922.3609432783658
 31
0.0
  0
SPLINE
  5
26D
330
1F
100
AcDbEntity
  8
0
  6
Continuous
 62
     7
100
AcDbSpline
210
0.0
220
0.0
230
1.0
 70
     8
 71
     3
 72
    19
 73
    15
 74
    13
 42
0.000000001
 43
0.0000000001
 44
0.00000001
 40
0.0
 40
0.0
 40
0.0
 40
0.0
 40
0.3001200288049492
 40
0.599422278764635
 40
0.8646168247452912
 40
1.160587620003796
 40
1.409961641160978
 40
1.693428776919555
 40
1.931235374351694
 40
2.20503441043769
 40
2.696739851381804
 40
3.18485885505453
 40
3.656054029273152
 40
4.133362584636511
 40
4.133362584636511
 40
4.133362584636511
 40
4.133362584636511
 10
634.4244744730363
 20
922.3609432824032
 30
0.0
 10
634.3685067950365
 20
922.4438941217031
 30
0.0
 10
634.2567239541853
 20
922.6095697806323
 30
0.0
 10
634.1128336512685
 20
922.8595569440831
 30
0.0
 10
633.9820349579661
 20
923.1149100292971
 30
0.0
 10
633.8718564085182
 20
923.3617776804226
 30
0.0
 10
633.7721934128015
 20
923.6195418424477
 30
0.0
 10
633.6916120523749
 20
923.8635937994977
 30
0.0
 10
633.6208833633992
 20
924.1190964549926
 30
0.0
 10
633.5472217846523
 20
924.4454445153883
 30
0.0
 10
633.4844225154745
 20
924.8592728412591
 30
0.0
 10
633.4569178173189
 20
925.3426838971435
 30
0.0
 10
633.4698610401013
 20
925.8223369430391
 30
0.0
 10
633.5140549458395
 20
926.1356161337974
 30
0.0
 10
633.5362943272391
 20
926.2932653158323
 30
0.0
 11
634.4244744730363
 21
922.3609432824032
 31
0.0
 11
634.259586264558
 21
922.6117099285177
 31
0.0
 11
634.1094445007643
 21
922.8706293910476
 31
0.0
 11
633.9887279974332
 21
923.1067557838251
 31
0.0
 11
633.8680417673581
 21
923.3770029778511
 31
0.0
 11
633.7781235988095
 21
923.6096016141851
 31
0.0
 11
633.6892430280493
 21
923.8787741638168
 31
0.0
 11
633.6258029909313
 21
924.1079626008188
 31
0.0
 11
633.5655042814772
 21
924.3750393276819
 31
0.0
 11
633.4919264197961
 21
924.8612085777175
 31
0.0
 11
633.4635425159283
 21
925.3485016276084
 31
0.0
 11
633.4786035351708
 21
925.819456040034
 31
0.0
 11
633.5362943272391
 21
926.2932653158323
 31
0.0
  0
SPLINE
  5
26E
330
1F
100
AcDbEntity
  8
0
  6
Continuous
 62
     7
100
AcDbSpline
210
0.0
220
0.0
230
1.0
 70
     8
 71
     3
 72
    15
 73
    11
 74
     9
 42
0.000000001
 43
0.0000000001
 44
0.00000001
 40
0.0
 40
0.0
 40
0.0
 40
0.0
 40
1.372021433385089
 40
2.743873489505846
 40
4.115595912505223
 40
5.487248178726366
 40
6.858900444947477
 40
8.230622867947002
 40
9.602474924067868
 40
10.97449635745307
 40
10.97449635745307
 40
10.97449635745307
 40
10.97449635745307
 10
648.2988408134493
 20
928.7956640410108
 30
0.0
 10
648.2728061695841
 20
929.2537375638599
 30
0.0
 10
648.2207400814597
 20
930.1698280585489
 30
0.0
 10
647.8047330618084
 20
931.4910957874349
 30
0.0
 10
647.1581159939881
 20
932.708788579527
 30
0.0
 10
646.2812516001147
 20
933.7756761025051
 30
0.0
 10
645.2143640771367
 20
934.652540496379
 30
0.0
 10
643.9966712850446
 20
935.2991575641988
 30
0.0
 10
642.6754035561585
 20
935.7151645838502
 30
0.0
 10
641.7593130614695
 20
935.7672306719747
 30
0.0
 10
641.3012395386202
 20
935.7932653158398
 30
0.0
 11
648.2988408134493
 21
928.7956640410108
 31
0.0
 11
648.1644083316245
 21
930.1610836564525
 31
0.0
 11
647.7662738463202
 21
931.4738924776327
 31
0.0
 11
647.1197229018097
 21
932.6836834870242
 31
0.0
 11
646.2495816256167
 21
933.7440061280071
 31
0.0
 11
645.189258984634
 21
934.6141474042004
 31
0.0
 11
643.9794679752423
 21
935.2606983487108
 31
0.0
 11
642.666659154062
 21
935.658832834015
 31
0.0
 11
641.3012395386202
 21
935.7932653158398
 31
0.0
  0
SPLINE
  5
26F
330
1F
100
AcDbEntity
  8
0
  6
Continuous
 62
     7
100
AcDbSpline
210
0.0
220
0.0
230
1.0
 70
     8
 71
     3
 72
    16
 73
    12
 74
    10
 42
0.000000001
 43
0.0000000001
 44
0.00000001
 40
0.0
 40
0.0
 40
0.0
 40
0.0
 40
1.123383780416265
 40
1.866293119503713
 40
2.479861155020648
 40
3.061248477348878
 40
3.635381308562164
 40
4.346899139528178
 40
5.052427126005964
 40
5.753195761309791
 40
6.451323708916425
 40
6.451323708916425
 40
6.451323708916425
 40
6.451323708916425
 10
628.5021188371582
 20
763.325858191525
 30
0.0
 10
628.8763406177967
 20
763.3117503079472
 30
0.0
 10
629.4980404740044
 20
763.2883126974099
 30
0.0
 10
630.3253984853984
 20
763.3062059633064
 30
0.0
 10
630.9676945892292
 20
763.3842026968009
 30
0.0
 10
631.5444548083074
 20
763.5109477539233
 30
0.0
 10
632.1387408506262
 20
763.6981649078339
 30
0.0
 10
632.7502079558649
 20
763.9604295703447
 30
0.0
 10
633.3630992897467
 20
764.3130721117087
 30
0.0
 10
633.9314314540086
 20
764.7287949960814
 30
0.0
 10
634.2603337558904
 20
765.060198426792
 30
0.0
 10
634.4244744685643
 20
765.2255873533021
 30
0.0
 11
628.5021188371582
 21
763.325858191525
 31
0.0
 11
629.6251294627392
 21
763.2969056336656
 31
0.0
 11
630.3676615026147
 21
763.3205796001924
 31
0.0
 11
630.9766518946833
 21
763.3953889384162
 31
0.0
 11
631.5445625670222
 21
763.5198424931034
 31
0.0
 11
632.0921349051293
 21
763.6924491064763
 31
0.0
 11
632.7457273943236
 21
763.9736509611563
 31
0.0
 11
633.3576336859521
 21
764.3248495257847
 31
0.0
 11
633.9198756282874
 21
764.7431325416655
 31
0.0
 11
634.4244744685643
 21
765.2255873533021
 31
0.0
  0
SPLINE
  5
270
330
1F
100
AcDbEntity
  8
0
  6
Continuous
 62
     7
100
AcDbSpline
210
0.0
220
0.0
230
1.0
 70
     8
 71
     3
 72
    19
 73
    15
 74
    13
 42
0.000000001
 43
0.0000000001
 44
0.00000001
 40
0.0
 40
0.0
 40
0.0
 40
0.0
 40
0.3001200288047592
 40
0.5994222787645435
 40
0.8646168247450985
 40
1.160587620003811
 40
1.409961641160781
 40
1.693428776919574
 40
1.931235374351603
 40
2.205034410437488
 40
2.696739851381715
 40
3.184858855054328
 40
3.656054029272949
 40
4.133362584636534
 40
4.133362584636534
 40
4.133362584636534
 40
4.133362584636534
 10
634.4244744730363
 20
765.2255873492647
 30
0.0
 10
634.3685067950363
 20
765.142636509965
 30
0.0
 10
634.2567239541852
 20
764.976960851036
 30
0.0
 10
634.1128336512693
 20
764.7269736875847
 30
0.0
 10
633.982034957966
 20
764.4716206023712
 30
0.0
 10
633.8718564085182
 20
764.2247529512453
 30
0.0
 10
633.7721934128015
 20
763.9669887892205
 30
0.0
 10
633.6916120523749
 20
763.7229368321704
 30
0.0
 10
633.6208833633992
 20
763.4674341766756
 30
0.0
 10
633.5472217846523
 20
763.14108611628
 30
0.0
 10
633.4844225154743
 20
762.7272577904091
 30
0.0
 10
633.4569178173188
 20
762.2438467345245
 30
0.0
 10
633.4698610401013
 20
761.7641936886289
 30
0.0
 10
633.5140549458393
 20
761.4509144978713
 30
0.0
 10
633.5362943272391
 20
761.2932653158357
 30
0.0
 11
634.4244744730363
 21
765.2255873492647
 31
0.0
 11
634.259586264558
 21
764.9748207031505
 31
0.0
 11
634.1094445007643
 21
764.7159012406205
 31
0.0
 11
633.9887279974332
 21
764.4797748478431
 31
0.0
 11
633.8680417673581
 21
764.2095276538168
 31
0.0
 11
633.7781235988095
 21
763.9769290174831
 31
0.0
 11
633.6892430280493
 21
763.7077564678511
 31
0.0
 11
633.6258029909313
 21
763.4785680308493
 31
0.0
 11
633.5655042814772
 21
763.2114913039863
 31
0.0
 11
633.4919264197961
 21
762.7253220539505
 31
0.0
 11
633.4635425159283
 21
762.2380290040599
 31
0.0
 11
633.4786035351708
 21
761.7670745916342
 31
0.0
 11
633.5362943272391
 21
761.2932653158357
 31
0.0
  0
SPLINE
  5
271
330
1F
100
AcDbEntity
  8
0
  6
Continuous
 62
     7
100
AcDbSpline
210
0.0
220
0.0
230
1.0
 70
     8
 71
     3
 72
    15
 73
    11
 74
     9
 42
0.000000001
 43
0.0000000001
 44
0.00000001
 40
0.0
 40
0.0
 40
0.0
 40
0.0
 40
1.372021433384863
 40
2.74387348950562
 40
4.115595912505198
 40
5.48724817872634
 40
6.858900444947307
 40
8.230622867946884
 40
9.602474924067783
 40
10.97449635745297
 40
10.97449635745297
 40
10.97449635745297
 40
10.97449635745297
 10
648.2988408134493
 20
758.7908665906571
 30
0.0
 10
648.2728061695841
 20
758.3327930678081
 30
0.0
 10
648.2207400814593
 20
757.4167025731186
 30
0.0
 10
647.8047330618086
 20
756.0954348442333
 30
0.0
 10
647.1581159939878
 20
754.877742052141
 30
0.0
 10
646.2812516001148
 20
753.8108545291625
 30
0.0
 10
645.2143640771366
 20
752.9339901352895
 30
0.0
 10
643.9966712850445
 20
752.287373067469
 30
0.0
 10
642.6754035561585
 20
751.8713660478177
 30
0.0
 10
641.7593130614694
 20
751.8192999596934
 30
0.0
 10
641.3012395386202
 20
751.7932653158282
 30
0.0
 11
648.2988408134493
 21
758.7908665906571
 31
0.0
 11
648.1644083316245
 21
757.4254469752156
 31
0.0
 11
647.7662738463202
 21
756.1126381540354
 31
0.0
 11
647.1197229018097
 21
754.9028471446437
 31
0.0
 11
646.2495816256167
 21
753.8425245036608
 31
0.0
 11
645.189258984634
 21
752.9723832274677
 31
0.0
 11
643.9794679752423
 21
752.3258322829572
 31
0.0
 11
642.666659154062
 21
751.9276977976529
 31
0.0
 11
641.3012395386202
 21
751.7932653158282
 31
0.0
  0
SPLINE
  5
272
330
1F
100
AcDbEntity
  8
0
  6
Continuous
 62
     7
100
AcDbSpline
210
0.0
220
0.0
230
1.0
 70
     8
 71
     3
 72
    16
 73
    12
 74
    10
 42
0.000000001
 43
0.0000000001
 44
0.00000001
 40
0.0
 40
0.0
 40
0.0
 40
0.0
 40
1.123383780416034
 40
1.86629311950349
 40
2.479861155020566
 40
3.061248477348907
 40
3.635381308561956
 40
4.346899139528038
 40
5.052427126006753
 40
5.753195761309919
 40
6.451323708916464
 40
6.451323708916464
 40
6.451323708916464
 40
6.451323708916464
 10
323.0955627897313
 20
924.2606724401431
 30
0.0
 10
322.7213410090927
 20
924.2747803237206
 30
0.0
 10
322.0996411528852
 20
924.2982179342583
 30
0.0
 10
321.2722831414914
 20
924.2803246683613
 30
0.0
 10
320.6299870376601
 20
924.2023279348668
 30
0.0
 10
320.0532268185821
 20
924.0755828777448
 30
0.0
 10
319.4589407762635
 20
923.8883657238338
 30
0.0
 10
318.8474736710245
 20
923.6261010613233
 30
0.0
 10
318.2345823371419
 20
923.2734585199601
 30
0.0
 10
317.6662501728807
 20
922.8577356355863
 30
0.0
 10
317.3373478709989
 20
922.5263322048758
 30
0.0
 10
317.1732071583253
 20
922.3609432783658
 30
0.0
 11
323.0955627897313
 21
924.2606724401431
 31
0.0
 11
321.9725521641504
 21
924.2896249980024
 31
0.0
 11
321.2300201242749
 21
924.2659510314753
 31
0.0
 11
320.6210297322061
 21
924.1911416932518
 31
0.0
 11
320.0531190598671
 21
924.0666881385646
 31
0.0
 11
319.5055467217603
 21
923.8940815251916
 31
0.0
 11
318.851954232566
 21
923.6128796705118
 31
0.0
 11
318.2400479409362
 21
923.2616811058836
 31
0.0
 11
317.6778059986019
 21
922.8433980900026
 31
0.0
 11
317.1732071583253
 21
922.3609432783658
 31
0.0
  0
SPLINE
  5
273
330
1F
100
AcDbEntity
  8
0
  6
Continuous
 62
     7
100
AcDbSpline
210
0.0
220
0.0
230
1.0
 70
     8
 71
     3
 72
    19
 73
    15
 74
    13
 42
0.000000001
 43
0.0000000001
 44
0.00000001
 40
0.0
 40
0.0
 40
0.0
 40
0.0
 40
0.3001200288049805
 40
0.5994222787647234
 40
0.8646168247452761
 40
1.160587620003804
 40
1.409961641161007
 40
1.693428776919548
 40
1.931235374351611
 40
2.205034410437695
 40
2.696739851381826
 40
3.184858855054559
 40
3.65605402927319
 40
4.133362584636549
 40
4.133362584636549
 40
4.133362584636549
 40
4.133362584636549
 10
317.1732071538531
 20
922.3609432824032
 30
0.0
 10
317.229174831853
 20
922.443894121703
 30
0.0
 10
317.3409576727042
 20
922.6095697806323
 30
0.0
 10
317.4848479756209
 20
922.8595569440837
 30
0.0
 10
317.6156466689231
 20
923.114910029297
 30
0.0
 10
317.7258252183714
 20
923.3617776804228
 30
0.0
 10
317.825488214088
 20
923.6195418424476
 30
0.0
 10
317.9060695745146
 20
923.863593799498
 30
0.0
 10
317.9767982634897
 20
924.1190964549925
 30
0.0
 10
318.0504598422376
 20
924.4454445153881
 30
0.0
 10
318.113259111415
 20
924.859272841259
 30
0.0
 10
318.140763809571
 20
925.3426838971435
 30
0.0
 10
318.1278205867881
 20
925.8223369430391
 30
0.0
 10
318.0836266810501
 20
926.135616133797
 30
0.0
 10
318.0613872996503
 20
926.2932653158323
 30
0.0
 11
317.1732071538531
 21
922.3609432824032
 31
0.0
 11
317.3380953623314
 21
922.6117099285177
 31
0.0
 11
317.4882371261253
 21
922.8706293910476
 31
0.0
 11
317.6089536294562
 21
923.1067557838251
 31
0.0
 11
317.7296398595313
 21
923.3770029778511
 31
0.0
 11
317.8195580280799
 21
923.6096016141851
 31
0.0
 11
317.9084385988401
 21
923.8787741638168
 31
0.0
 11
317.9718786359578
 21
924.1079626008188
 31
0.0
 11
318.0321773454123
 21
924.3750393276819
 31
0.0
 11
318.1057552070935
 21
924.8612085777175
 31
0.0
 11
318.1341391109613
 21
925.3485016276084
 31
0.0
 11
318.1190780917186
 21
925.819456040034
 31
0.0
 11
318.0613872996503
 21
926.2932653158323
 31
0.0
  0
SPLINE
  5
274
330
1F
100
AcDbEntity
  8
0
  6
Continuous
 62
     7
100
AcDbSpline
210
0.0
220
0.0
230
1.0
 70
     8
 71
     3
 72
    15
 73
    11
 74
     9
 42
0.000000001
 43
0.0000000001
 44
0.00000001
 40
0.0
 40
0.0
 40
0.0
 40
0.0
 40
1.372021433385083
 40
2.743873489505824
 40
4.115595912505201
 40
5.487248178726416
 40
6.858900444947527
 40
8.2306228679466
 40
9.60247492406763
 40
10.97449635745317
 40
10.97449635745317
 40
10.97449635745317
 40
10.97449635745317
 10
303.2988408134402
 20
928.7956640410108
 30
0.0
 10
303.3248754573054
 20
929.2537375638599
 30
0.0
 10
303.3769415454297
 20
930.169828058549
 30
0.0
 10
303.7929485650808
 20
931.4910957874348
 30
0.0
 10
304.4395656329015
 20
932.7087885795268
 30
0.0
 10
305.3164300267747
 20
933.775676102505
 30
0.0
 10
306.3833175497527
 20
934.6525404963784
 30
0.0
 10
307.6010103418446
 20
935.2991575641993
 30
0.0
 10
308.9222780707308
 20
935.7151645838503
 30
0.0
 10
309.8383685654198
 20
935.7672306719743
 30
0.0
 10
310.2964420882693
 20
935.7932653158398
 30
0.0
 11
303.2988408134402
 21
928.7956640410108
 31
0.0
 11
303.433273295265
 21
930.1610836564525
 31
0.0
 11
303.8314077805692
 21
931.4738924776327
 31
0.0
 11
304.4779587250796
 21
932.6836834870242
 31
0.0
 11
305.3481000012728
 21
933.7440061280071
 31
0.0
 11
306.4084226422556
 21
934.6141474042004
 31
0.0
 11
307.6182136516467
 21
935.2606983487108
 31
0.0
 11
308.9310224728271
 21
935.658832834015
 31
0.0
 11
310.2964420882693
 21
935.7932653158398
 31
0.0
  0
SPLINE
  5
275
330
1F
100
AcDbEntity
  8
0
  6
Continuous
 62
     2
100
AcDbSpline
210
0.0
220
0.0
230
1.0
 70
     8
 71
     3
 72
    27
 73
    23
 74
    21
 42
0.000000001
 43
0.0000000001
 44
0.00000001
 40
0.0
 40
0.0
 40
0.0
 40
0.0
 40
0.1567481033165563
 40
0.309119003494979
 40
0.5723432438289701
 40
0.8543600864175509
 40
1.115278954568106
 40
1.402919321718537
 40
1.663650857331487
 40
1.955881170376226
 40
2.218374255870214
 40
2.514405311589125
 40
2.780110437778298
 40
3.079751076951788
 40
3.350022858994934
 40
3.653310153482676
 40
4.275651036183852
 40
4.831389634786456
 40
5.481938380369678
 40
6.064097307624925
 40
6.747506748505616
 40
7.384187261033426
 40
7.384187261033426
 40
7.384187261033426
 40
7.384187261033426
 10
325.7907546879283
 20
931.013960041018
 30
0.0
 10
325.7861599881445
 20
930.9619128790183
 30
0.0
 10
325.7770988815779
 20
930.8592719774108
 30
0.0
 10
325.7584787994862
 20
930.6693980073785
 30
0.0
 10
325.7319791947588
 20
930.4383569970089
 30
0.0
 10
325.6954403349852
 20
930.1721086538602
 30
0.0
 10
325.6517839636849
 20
929.8986936630987
 30
0.0
 10
325.6033415738911
 20
929.6332892712132
 30
0.0
 10
325.5469177244062
 20
929.3588082692347
 30
0.0
 10
325.4862365343474
 20
929.0938224393708
 30
0.0
 10
325.4167359161843
 20
928.8188653356959
 30
0.0
 10
325.3433959167972
 20
928.5540631017295
 30
0.0
 10
325.2604770094993
 20
928.2791492778417
 30
0.0
 10
325.1739523029264
 20
928.0143601291298
 30
0.0
 10
325.0771757832708
 20
927.7398279659948
 30
0.0
 10
324.9359350933398
 20
927.3670212367338
 30
0.0
 10
324.7437256482584
 20
926.9119168457455
 30
0.0
 10
324.4799094710827
 20
926.3622320949409
 30
0.0
 10
324.1960779670952
 20
925.837592994513
 30
0.0
 10
323.8635328583419
 20
925.2922012707483
 30
0.0
 10
323.509158645173
 20
924.7654317601854
 30
0.0
 10
323.2301358162287
 20
924.4249075521537
 30
0.0
 10
323.0955628617403
 20
924.2606724401495
 30
0.0
 11
325.7907546879283
 21
931.013960041018
 31
0.0
 11
325.7767146151351
 21
930.8578419952363
 31
0.0
 11
325.7617805758453
 21
930.7062047119014
 31
0.0
 11
325.7317605283293
 21
930.444697929086
 31
0.0
 11
325.6934239586012
 21
930.1652989188306
 31
0.0
 11
325.6522829969483
 21
929.9076439615039
 31
0.0
 11
325.6006347097812
 21
929.6246785303063
 31
0.0
 11
325.5481357045671
 21
929.3692870893391
 31
0.0
 11
325.4829030914543
 21
929.0844305253333
 31
0.0
 11
325.4185767550914
 21
928.8299413460144
 31
0.0
 11
325.3395613092212
 21
928.5446503624922
 31
0.0
 11
325.2628343249236
 21
928.290264466697
 31
0.0
 11
325.1697637715752
 21
928.0054445503066
 31
0.0
 11
325.0799084561936
 21
927.7505468090486
 31
0.0
 11
324.9724592021753
 21
927.4669311521006
 31
0.0
 11
324.7303107582728
 21
926.8936316615399
 31
0.0
 11
324.4898925015082
 21
926.392588297665
 31
0.0
 11
324.1801264510639
 21
925.8205230338795
 31
0.0
 11
323.8776931980203
 21
925.3230864593071
 31
0.0
 11
323.4915821229235
 21
924.7592010956253
 31
0.0
 11
323.0955628617403
 21
924.2606724401495
 31
0.0
  0
SPLINE
  5
276
330
1F
100
AcDbEntity
  8
0
  6
Continuous
 62
     7
100
AcDbSpline
210
0.0
220
0.0
230
1.0
 70
     8
 71
     3
 72
    15
 73
    11
 74
     9
 42
0.000000001
 43
0.0000000001
 44
0.00000001
 40
0.0
 40
0.0
 40
0.0
 40
0.0
 40
1.372142866321259
 40
2.744210418754255
 40
4.11622032924968
 40
5.488199044232365
 40
6.860177759215158
 40
8.232187669710742
 40
9.604255222143715
 40
10.97639808846452
 40
10.97639808846452
 40
10.97639808846452
 40
10.97639808846452
 10
303.2988408134793
 20
928.7943314497425
 30
0.0
 10
303.3248851905854
 20
929.2524455137874
 30
0.0
 10
303.3769725296734
 20
930.168648495582
 30
0.0
 10
303.7931076577685
 20
931.4900986662067
 30
0.0
 10
304.4398998396428
 20
932.708010609794
 30
0.0
 10
305.3169792092935
 20
933.7751269200227
 30
0.0
 10
306.3840955195221
 20
934.6522062896734
 30
0.0
 10
307.6020074631093
 20
935.298998471548
 30
0.0
 10
308.923457633734
 20
935.7151335996432
 30
0.0
 10
309.8396606155285
 20
935.767220938731
 30
0.0
 10
310.2977746795732
 20
935.7932653158373
 30
0.0
 11
303.2988408134793
 21
928.7943314497425
 31
0.0
 11
303.4333126674633
 21
930.1598692085817
 31
0.0
 11
303.8315612601947
 21
931.4728686115908
 31
0.0
 11
304.4782892764283
 21
932.6828909551904
 31
0.0
 11
305.3486517855991
 21
933.743454343717
 31
0.0
 11
306.4092151741257
 21
934.613816852888
 31
0.0
 11
307.6192375177253
 21
935.2605448691219
 31
0.0
 11
308.9322369207345
 21
935.6587934618533
 31
0.0
 11
310.2977746795732
 21
935.7932653158373
 31
0.0
  0
SPLINE
  5
277
330
1F
100
AcDbEntity
  8
0
  6
Continuous
 62
     2
100
AcDbSpline
210
0.0
220
0.0
230
1.0
 70
     8
 71
     3
 72
    19
 73
    15
 74
    13
 42
0.000000001
 43
0.0000000001
 44
0.00000001
 40
0.0
 40
0.0
 40
0.0
 40
0.0
 40
1.004095223418579
 40
1.990907899212882
 40
2.943632910351485
 40
3.846053084993285
 40
4.682820391653046
 40
5.439725332423049
 40
6.103952050230427
 40
6.664323372831038
 40
7.111552251432378
 40
7.438578090628171
 40
7.641417816841607
 40
7.725587153900416
 40
7.725587153900416
 40
7.725587153900416
 40
7.725587153900416
 10
850.5743032338171
 20
774.8548030454848
 30
0.0
 10
850.5823855489588
 20
774.5202008544053
 30
0.0
 10
850.5984110793077
 20
773.8567556656694
 30
0.0
 10
850.6135364353986
 20
772.8756502057882
 30
0.0
 10
850.6217151005242
 20
771.9283552185966
 30
0.0
 10
850.622202009665
 20
771.0310524630742
 30
0.0
 10
850.6152817341817
 20
770.1989968754867
 30
0.0
 10
850.6007141733819
 20
769.446615507198
 30
0.0
 10
850.5800093366947
 20
768.7860306883802
 30
0.0
 10
850.5502206298922
 20
768.2305815335595
 30
0.0
 10
850.5217818896365
 20
767.7837947133314
 30
0.0
 10
850.4719325916592
 20
767.4674286861291
 30
0.0
 10
850.4544976904543
 20
767.2527216035265
 30
0.0
 10
850.3913869549391
 20
767.1790475668186
 30
0.0
 10
850.3728788727151
 20
767.157441643173
 30
0.0
 11
850.5743032338171
 21
774.8548030454848
 31
0.0
 11
850.5970760219359
 21
773.8509661016354
 31
0.0
 11
850.6125766314575
 21
772.8642751731923
 31
0.0
 11
850.6205402973061
 21
771.9115834461026
 31
0.0
 11
850.6208310035046
 21
771.0091633183035
 31
0.0
 11
850.6134437772693
 21
770.1724286206046
 31
0.0
 11
850.5985048033415
 21
769.415671118921
 31
0.0
 11
850.5762692395308
 21
768.751816682868
 31
0.0
 11
850.5471168869235
 21
768.192204174588
 31
0.0
 11
850.511545675482
 21
767.746392152954
 31
0.0
 11
850.4701631846921
 21
767.421995191228
 31
0.0
 11
850.4236762423928
 21
767.224554266831
 31
0.0
 11
850.3728788727151
 21
767.157441643173
 31
0.0
  0
SPLINE
  5
278
330
1F
100
AcDbEntity
  8
0
  6
Continuous
 62
     2
100
AcDbSpline
210
0.0
220
0.0
230
1.0
 70
     8
 71
     3
 72
    19
 73
    15
 74
    13
 42
0.000000001
 43
0.0000000001
 44
0.00000001
 40
0.0
 40
0.0
 40
0.0
 40
0.0
 40
1.004095223418465
 40
1.990907899212769
 40
2.943632910351371
 40
3.846053084993285
 40
4.682820391653159
 40
5.439725332423049
 40
6.103952050230427
 40
6.664323372831038
 40
7.111552251432605
 40
7.438578090628061
 40
7.641417816841497
 40
7.725587153900396
 40
7.725587153900396
 40
7.725587153900396
 40
7.725587153900396
 10
850.5743032338171
 20
912.7317275861831
 30
0.0
 10
850.5823855489588
 20
913.0663297772625
 30
0.0
 10
850.5984110793077
 20
913.7297749659984
 30
0.0
 10
850.6135364353986
 20
914.7108804258793
 30
0.0
 10
850.6217151005242
 20
915.6581754130711
 30
0.0
 10
850.6222020096649
 20
916.5554781685939
 30
0.0
 10
850.6152817341818
 20
917.387533756181
 30
0.0
 10
850.6007141733821
 20
918.13991512447
 30
0.0
 10
850.5800093366945
 20
918.8004999432874
 30
0.0
 10
850.5502206298925
 20
919.3559490981082
 30
0.0
 10
850.5217818896366
 20
919.8027359183365
 30
0.0
 10
850.471932591659
 20
920.119101945539
 30
0.0
 10
850.4544976904546
 20
920.3338090281409
 30
0.0
 10
850.3913869549388
 20
920.4074830648495
 30
0.0
 10
850.3728788727151
 20
920.4290889884949
 30
0.0
 11
850.5743032338171
 21
912.7317275861831
 31
0.0
 11
850.5970760219359
 21
913.7355645300323
 31
0.0
 11
850.6125766314575
 21
914.7222554584755
 31
0.0
 11
850.6205402973061
 21
915.6749471855652
 31
0.0
 11
850.6208310035046
 21
916.5773673133643
 31
0.0
 11
850.6134437772693
 21
917.4141020110634
 31
0.0
 11
850.5985048033415
 21
918.1708595127469
 31
0.0
 11
850.5762692395308
 21
918.8347139487998
 31
0.0
 11
850.5471168869235
 21
919.3943264570798
 31
0.0
 11
850.511545675482
 21
919.8401384787142
 31
0.0
 11
850.4701631846921
 21
920.1645354404397
 31
0.0
 11
850.4236762423928
 21
920.3619763648368
 31
0.0
 11
850.3728788727151
 21
920.4290889884949
 31
0.0
  0
ARC
  5
279
330
1F
100
AcDbEntity
  8
0
  6
Continuous
 62
     7
100
AcDbCircle
 10
849.871316370751
 20
912.4394805249096
 30
0.0
 40
8.0
100
AcDbArc
 50
0.00000000037291
 51
88.49999999999889
  0
ARC
  5
27A
330
1F
100
AcDbEntity
  8
0
  6
Continuous
 62
     7
100
AcDbCircle
 10
821.871316370864
 20
935.0181417431199
 30
0.0
 40
0.5
100
AcDbArc
 50
0.00000000002606
 51
88.49999999998415
  0
ARC
  5
27B
330
1F
100
AcDbEntity
  8
0
  6
Continuous
 62
     7
100
AcDbCircle
 10
849.8713163708471
 20
916.9826165564446
 30
0.0
 40
8.0
100
AcDbArc
 50
359.9999999983634
 51
70.00000000002564
  0
ARC
  5
27C
330
1F
100
AcDbEntity
  8
0
  6
Continuous
 62
     7
100
AcDbCircle
 10
822.871316370864
 20
921.6494141434471
 30
0.0
 40
0.5
100
AcDbArc
 50
180.0
 51
268.5000000001147
  0
ARC
  5
27D
330
1F
100
AcDbEntity
  8
0
  6
Continuous
 62
     7
100
AcDbCircle
 10
849.871316370751
 20
775.1470501067583
 30
0.0
 40
8.000000000000126
100
AcDbArc
 50
271.5000000000011
 51
359.9999999996255
  0
ARC
  5
27E
330
1F
100
AcDbEntity
  8
0
  6
Continuous
 62
     7
100
AcDbCircle
 10
821.871316370864
 20
752.5683888885479
 30
0.0
 40
0.5000000000000823
100
AcDbArc
 50
271.5000000000155
 51
359.999999999974
  0
ARC
  5
27F
330
1F
100
AcDbEntity
  8
0
  6
Continuous
 62
     7
100
AcDbCircle
 10
849.8713163708471
 20
770.6039140752232
 30
0.0
 40
7.999999999999666
100
AcDbArc
 50
289.9999999999749
 51
0.00000000164473
  0
ARC
  5
280
330
1F
100
AcDbEntity
  8
0
  6
Continuous
 62
     7
100
AcDbCircle
 10
822.871316370864
 20
765.9371164882208
 30
0.0
 40
0.5000000000000525
100
AcDbArc
 50
91.49999999988529
 51
180.0
  0
DIMENSION
  5
28C
330
1F
100
AcDbEntity
  8
1
100
AcDbDimension
  2
*D3
 10
253.2988408134193
 20
935.7932653158373
 30
0.0
 11
235.7988408134193
 21
843.7932653158327
 31
0.0
 70
    32
  1
<>
 71
     5
 42
-1.0
 53
90.0
  3
ME10_DIM_10
100
AcDbAlignedDimension
 13
310.2964420882693
 23
751.7932653158282
 33
0.0
 14
310.2977746795732
 24
935.7932653158373
 34
0.0
 50
90.0
100
AcDbRotatedDimension
  0
DIMENSION
  5
298
330
1F
100
AcDbEntity
  8
1
100
AcDbDimension
  2
*D4
 10
811.3713163707396
 20
691.7932653158281
 30
0.0
 11
886.121316370793
 21
710.0432653158281
 31
0.0
 70
    32
  1
<>
 71
     5
 42
-1.0
 53
0.00013888888889
  3
ME10_DIM_11
100
AcDbAlignedDimension
 13
857.8713163708471
 23
770.6039140754528
 33
0.0
 14
811.37131637074
 24
751.7932653158282
 34
0.0
100
AcDbRotatedDimension
  0
DIMENSION
  5
2A3
330
1F
100
AcDbEntity
  8
1
100
AcDbDimension
  2
*D5
 10
648.2988408134822
 20
691.7932653158282
 30
0.0
 11
475.7988408134612
 21
709.2932653158282
 31
0.0
 70
    32
  1
<>
 71
     5
 42
-1.0
 53
0.00013888888889
  3
ME10_DIM_12
100
AcDbAlignedDimension
 13
303.2988408134402
 23
758.7908665906571
 33
0.0
 14
648.2988408134822
 24
758.7908665906571
 34
0.0
100
AcDbRotatedDimension
  0
ENDSEC
  0
SECTION
  2
OBJECTS
  0
DICTIONARY
  5
C
330
0
100
AcDbDictionary
281
     1
  3
ACAD_GROUP
350
D
  3
ACAD_LAYOUT
350
1A
  3
ACAD_MATERIAL
350
3B
  3
ACAD_MLEADERSTYLE
350
2A6
  3
ACAD_MLINESTYLE
350
17
  3
ACAD_PLOTSETTINGS
350
19
  3
ACAD_PLOTSTYLENAME
350
E
  3
ACAD_VISUALSTYLE
350
2A
  3
AcDbVariableDictionary
350
2A4
  0
DICTIONARY
  5
D
102
{ACAD_REACTORS
330
C
102
}
330
C
100
AcDbDictionary
281
     1
  0
DICTIONARY
  5
1A
102
{ACAD_REACTORS
330
C
102
}
330
C
100
AcDbDictionary
281
     1
  3
Layout1
350
1E
  3
Layout2
350
26
  3
Model
350
22
  0
DICTIONARY
  5
3B
102
{ACAD_REACTORS
330
C
102
}
330
C
100
AcDbDictionary
281
     1
  3
ByBlock
350
3D
  3
ByLayer
350
3C
  3
Global
350
3E
  0
DICTIONARY
  5
2A6
102
{ACAD_REACTORS
330
C
102
}
330
C
100
AcDbDictionary
281
     1
  0
DICTIONARY
  5
17
102
{ACAD_REACTORS
330
C
102
}
330
C
100
AcDbDictionary
281
     1
  3
Standard
350
18
  0
DICTIONARY
  5
19
102
{ACAD_REACTORS
330
C
102
}
330
C
100
AcDbDictionary
281
     1
  0
ACDBDICTIONARYWDFLT
  5
E
102
{ACAD_REACTORS
330
C
102
}
330
C
100
AcDbDictionary
281
     1
  3
Normal
350
F
100
AcDbDictionaryWithDefault
340
F
  0
DICTIONARY
  5
2A
102
{ACAD_REACTORS
330
C
102
}
330
C
100
AcDbDictionary
281
     1
  3
2dWireframe
350
2F
  3
3D Hidden
350
31
  3
3dWireframe
350
30
  3
Basic
350
32
  3
Brighten
350
36
  3
ColorChange
350
3A
  3
Conceptual
350
34
  3
Dim
350
35
  3
Facepattern
350
39
  3
Flat
350
2B
  3
FlatWithEdges
350
2C
  3
Gouraud
350
2D
  3
GouraudWithEdges
350
2E
  3
Linepattern
350
38
  3
Realistic
350
33
  3
Thicken
350
37
  0
DICTIONARY
  5
2A4
102
{ACAD_REACTORS
330
C
102
}
330
C
100
AcDbDictionary
281
     1
  3
DIMASSOC
350
2A7
  3
HIDETEXT
350
2A8
  0
LAYOUT
  5
1E
102
{ACAD_REACTORS
330
1A
102
}
330
1A
100
AcDbPlotSettings
  1

  2
none_device
  4

  6

 40
0.0
 41
0.0
 42
0.0
 43
0.0
 44
0.0
 45
0.0
 46
0.0
 47
0.0
 48
0.0
 49
0.0
140
0.0
141
0.0
142
1.0
143
1.0
 70
   688
 72
     0
 73
     0
 74
     5
  7

 75
    16
147
1.0
148
0.0
149
0.0
100
AcDbLayout
  1
Layout1
 70
     1
 71
     1
 10
0.0
 20
0.0
 11
12.0
 21
9.0
 12
0.0
 22
0.0
 32
0.0
 14
1.00000000000000E+20
 24
1.00000000000000E+20
 34
1.00000000000000E+20
 15
-1.00000000000000E+20
 25
-1.00000000000000E+20
 35
-1.00000000000000E+20
146
0.0
 13
0.0
 23
0.0
 33
0.0
 16
1.0
 26
0.0
 36
0.0
 17
0.0
 27
1.0
 37
0.0
 76
     0
330
1B
  0
LAYOUT
  5
26
102
{ACAD_REACTORS
330
1A
102
}
330
1A
100
AcDbPlotSettings
  1

  2
none_device
  4

  6

 40
0.0
 41
0.0
 42
0.0
 43
0.0
 44
0.0
 45
0.0
 46
0.0
 47
0.0
 48
0.0
 49
0.0
140
0.0
141
0.0
142
1.0
143
1.0
 70
   688
 72
     0
 73
     0
 74
     5
  7

 75
    16
147
1.0
148
0.0
149
0.0
100
AcDbLayout
  1
Layout2
 70
     1
 71
     2
 10
0.0
 20
0.0
 11
0.0
 21
0.0
 12
0.0
 22
0.0
 32
0.0
 14
0.0
 24
0.0
 34
0.0
 15
0.0
 25
0.0
 35
0.0
146
0.0
 13
0.0
 23
0.0
 33
0.0
 16
1.0
 26
0.0
 36
0.0
 17
0.0
 27
1.0
 37
0.0
 76
     0
330
23
  0
LAYOUT
  5
22
102
{ACAD_REACTORS
330
1A
102
}
330
1A
100
AcDbPlotSettings
  1

  2
none_device
  4

  6

 40
0.0
 41
0.0
 42
0.0
 43
0.0
 44
0.0
 45
0.0
 46
0.0
 47
0.0
 48
0.0
 49
0.0
140
0.0
141
0.0
142
1.0
143
1.0
 70
  1712
 72
     0
 73
     0
 74
     0
  7

 75
     0
147
1.0
148
0.0
149
0.0
100
AcDbLayout
  1
Model
 70
     1
 71
     0
 10
0.0
 20
0.0
 11
12.0
 21
9.0
 12
0.0
 22
0.0
 32
0.0
 14
0.0
 24
0.0
 34
0.0
 15
1050.000000000001
 25
1485.000000000001
 35
0.0
146
0.0
 13
0.0
 23
0.0
 33
0.0
 16
1.0
 26
0.0
 36
0.0
 17
0.0
 27
1.0
 37
0.0
 76
     0
330
1F
331
29
  0
MATERIAL
  5
3D
102
{ACAD_REACTORS
330
3B
102
}
102
{ACAD_XDICTIONARY
360
2CB
102
}
330
3B
100
AcDbMaterial
  1
ByBlock
  0
MATERIAL
  5
3C
102
{ACAD_REACTORS
330
3B
102
}
102
{ACAD_XDICTIONARY
360
2C9
102
}
330
3B
100
AcDbMaterial
  1
ByLayer
  0
MATERIAL
  5
3E
102
{ACAD_REACTORS
330
3B
102
}
102
{ACAD_XDICTIONARY
360
2CD
102
}
330
3B
100
AcDbMaterial
  1
Global
  0
MLINESTYLE
  5
18
102
{ACAD_REACTORS
330
17
102
}
330
17
100
AcDbMlineStyle
  2
Standard
 70
     0
  3

 62
   256
 51
90.0
 52
90.0
 71
     2
 49
0.5
 62
   256
  6
BYLAYER
 49
-0.5
 62
   256
  6
BYLAYER
  0
ACDBPLACEHOLDER
  5
F
102
{ACAD_REACTORS
330
E
102
}
330
E
  0
VISUALSTYLE
  5
2F
102
{ACAD_REACTORS
330
2A
102
}
102
{ACAD_XDICTIONARY
360
2B1
102
}
330
2A
100
AcDbVisualStyle
  2
2dWireframe
 70
     4
 71
     0
 72
     2
 73
     0
 90
        0
 40
-0.6
 41
-30.0
 62
     5
 63
     7
 74
     1
 91
        4
 64
     7
 65
   257
 75
     1
175
     1
 42
1.0
 92
        0
 66
   257
 43
1.0
 76
     1
 77
     6
 78
     2
 67
     7
 79
     5
170
     0
171
     0
290
     0
174
     0
 93
        1
 44
0.0
173
     0
291
     0
 45
0.0
1001
ACAD
1000
AcDbSavedByObjectVersion
1070
     0
  0
VISUALSTYLE
  5
31
102
{ACAD_REACTORS
330
2A
102
}
102
{ACAD_XDICTIONARY
360
2B5
102
}
330
2A
100
AcDbVisualStyle
  2
3D Hidden
 70
     6
 71
     1
 72
     2
 73
     2
 90
        0
 40
-0.6
 41
-30.0
 62
     5
 63
     7
 74
     2
 91
        2
 64
     7
 65
   257
 75
     2
175
     1
 42
40.0
 92
        0
 66
   257
 43
1.0
 76
     1
 77
     6
 78
     2
 67
     7
 79
     3
170
     0
171
     0
290
     0
174
     0
 93
        1
 44
0.0
173
     0
291
     0
 45
0.0
1001
ACAD
1000
AcDbSavedByObjectVersion
1070
     0
  0
VISUALSTYLE
  5
30
102
{ACAD_REACTORS
330
2A
102
}
102
{ACAD_XDICTIONARY
360
2B3
102
}
330
2A
100
AcDbVisualStyle
  2
3dWireframe
 70
     5
 71
     0
 72
     2
 73
     0
 90
        0
 40
-0.6
 41
-30.0
 62
     5
 63
     7
 74
     1
 91
        4
 64
     7
 65
   257
 75
     1
175
     1
 42
1.0
 92
        0
 66
   257
 43
1.0
 76
     1
 77
     6
 78
     2
 67
     7
 79
     5
170
     0
171
     0
290
     0
174
     0
 93
        1
 44
0.0
173
     0
291
     0
 45
0.0
1001
ACAD
1000
AcDbSavedByObjectVersion
1070
     0
  0
VISUALSTYLE
  5
32
102
{ACAD_REACTORS
330
2A
102
}
102
{ACAD_XDICTIONARY
360
2B7
102
}
330
2A
100
AcDbVisualStyle
  2
Basic
 70
     7
 71
     1
 72
     0
 73
     1
 90
        0
 40
-0.6
 41
-30.0
 62
     5
 63
     7
 74
     0
 91
        4
 64
     7
 65
   257
 75
     1
175
     1
 42
1.0
 92
        8
 66
     7
 43
1.0
 76
     1
 77
     6
 78
     2
 67
     7
 79
     5
170
     0
171
     0
290
     0
174
     0
 93
        1
 44
0.0
173
     0
291
     1
 45
0.0
1001
ACAD
1000
AcDbSavedByObjectVersion
1070
     0
  0
VISUALSTYLE
  5
36
102
{ACAD_REACTORS
330
2A
102
}
102
{ACAD_XDICTIONARY
360
2BF
102
}
330
2A
100
AcDbVisualStyle
  2
Brighten
 70
    12
 71
     2
 72
     2
 73
     0
 90
        0
 40
-0.6
 41
-30.0
 62
     5
 63
     7
 74
     1
 91
        4
 64
     7
 65
   257
 75
     1
175
     1
 42
1.0
 92
        8
 66
     7
 43
1.0
 76
     1
 77
     6
 78
     2
 67
     7
 79
     5
170
     0
171
     0
290
     0
174
     0
 93
        1
 44
50.0
173
     0
291
     1
 45
0.0
1001
ACAD
1000
AcDbSavedByObjectVersion
1070
     0
  0
VISUALSTYLE
  5
3A
102
{ACAD_REACTORS
330
2A
102
}
102
{ACAD_XDICTIONARY
360
2C7
102
}
330
2A
100
AcDbVisualStyle
  2
ColorChange
 70
    16
 71
     2
 72
     2
 73
     3
 90
        0
 40
-0.6
 41
-30.0
 62
     5
 63
     8
 74
     1
 91
        4
 64
     7
 65
   257
 75
     1
175
     1
 42
1.0
 92
        8
 66
     8
 43
1.0
 76
     1
 77
     6
 78
     2
 67
     7
 79
     5
170
     0
171
     0
290
     0
174
     0
 93
        1
 44
0.0
173
     0
291
     1
 45
0.0
1001
ACAD
1000
AcDbSavedByObjectVersion
1070
     0
  0
VISUALSTYLE
  5
34
102
{ACAD_REACTORS
330
2A
102
}
102
{ACAD_XDICTIONARY
360
2BB
102
}
330
2A
100
AcDbVisualStyle
  2
Conceptual
 70
     9
 71
     3
 72
     2
 73
     0
 90
        0
 40
-0.6
 41
-30.0
 62
     5
 63
     7
 74
     2
 91
        2
 64
     7
 65
   257
 75
     1
175
     1
 42
40.0
 92
        8
 66
     7
 43
1.0
 76
     1
 77
     6
 78
     2
 67
     7
 79
     3
170
     0
171
     0
290
     0
174
     0
 93
        1
 44
0.0
173
     0
291
     0
 45
0.0
1001
ACAD
1000
AcDbSavedByObjectVersion
1070
     0
  0
VISUALSTYLE
  5
35
102
{ACAD_REACTORS
330
2A
102
}
102
{ACAD_XDICTIONARY
360
2BD
102
}
330
2A
100
AcDbVisualStyle
  2
Dim
 70
    11
 71
     2
 72
     2
 73
     0
 90
        0
 40
-0.6
 41
-30.0
 62
     5
 63
     7
 74
     1
 91
        4
 64
     7
 65
   257
 75
     1
175
     1
 42
1.0
 92
        8
 66
     7
 43
1.0
 76
     1
 77
     6
 78
     2
 67
     7
 79
     5
170
     0
171
     0
290
     0
174
     0
 93
        1
 44
-50.0
173
     0
291
     1
 45
0.0
1001
ACAD
1000
AcDbSavedByObjectVersion
1070
     0
  0
VISUALSTYLE
  5
39
102
{ACAD_REACTORS
330
2A
102
}
102
{ACAD_XDICTIONARY
360
2C5
102
}
330
2A
100
AcDbVisualStyle
  2
Facepattern
 70
    15
 71
     2
 72
     2
 73
     0
 90
        0
 40
-0.6
 41
-30.0
 62
     5
 63
     7
 74
     1
 91
        4
 64
     7
 65
   257
 75
     1
175
     1
 42
1.0
 92
        8
 66
     7
 43
1.0
 76
     1
 77
     6
 78
     2
 67
     7
 79
     5
170
     0
171
     0
290
     0
174
     0
 93
        1
 44
0.0
173
     0
291
     1
 45
0.0
1001
ACAD
1000
AcDbSavedByObjectVersion
1070
     0
  0
VISUALSTYLE
  5
2B
102
{ACAD_REACTORS
330
2A
102
}
102
{ACAD_XDICTIONARY
360
2A9
102
}
330
2A
100
AcDbVisualStyle
  2
Flat
 70
     0
 71
     2
 72
     1
 73
     1
 90
        2
 40
-0.6
 41
30.0
 62
     5
 63
     7
 74
     0
 91
        4
 64
     7
 65
   257
 75
     1
175
     1
 42
1.0
 92
        8
 66
     7
 43
1.0
 76
     1
 77
     6
 78
     2
 67
     7
 79
     5
170
     0
171
     0
290
     0
174
     0
 93
       13
 44
0.0
173
     0
291
     1
 45
0.0
1001
ACAD
1000
AcDbSavedByObjectVersion
1070
     0
  0
VISUALSTYLE
  5
2C
102
{ACAD_REACTORS
330
2A
102
}
102
{ACAD_XDICTIONARY
360
2AB
102
}
330
2A
100
AcDbVisualStyle
  2
FlatWithEdges
 70
     1
 71
     2
 72
     1
 73
     1
 90
        2
 40
-0.6
 41
30.0
 62
     5
 63
     7
 74
     1
 91
        4
 64
     7
 65
   257
 75
     1
175
     1
 42
1.0
 92
        0
 66
   257
 43
1.0
 76
     1
 77
     6
 78
     2
 67
     7
 79
     5
170
     0
171
     0
290
     0
174
     0
 93
       13
 44
0.0
173
     0
291
     1
 45
0.0
1001
ACAD
1000
AcDbSavedByObjectVersion
1070
     0
  0
VISUALSTYLE
  5
2D
102
{ACAD_REACTORS
330
2A
102
}
102
{ACAD_XDICTIONARY
360
2AD
102
}
330
2A
100
AcDbVisualStyle
  2
Gouraud
 70
     2
 71
     2
 72
     2
 73
     1
 90
        2
 40
-0.6
 41
30.0
 62
     5
 63
     7
 74
     0
 91
        4
 64
     7
 65
   257
 75
     1
175
     1
 42
1.0
 92
        0
 66
     7
 43
1.0
 76
     1
 77
     6
 78
     2
 67
     7
 79
     5
170
     0
171
     0
290
     0
174
     0
 93
       13
 44
0.0
173
     0
291
     1
 45
0.0
1001
ACAD
1000
AcDbSavedByObjectVersion
1070
     0
  0
VISUALSTYLE
  5
2E
102
{ACAD_REACTORS
330
2A
102
}
102
{ACAD_XDICTIONARY
360
2AF
102
}
330
2A
100
AcDbVisualStyle
  2
GouraudWithEdges
 70
     3
 71
     2
 72
     2
 73
     1
 90
        2
 40
-0.6
 41
30.0
 62
     5
 63
     7
 74
     1
 91
        4
 64
     7
 65
   257
 75
     1
175
     1
 42
1.0
 92
        0
 66
   257
 43
1.0
 76
     1
 77
     6
 78
     2
 67
     7
 79
     5
170
     0
171
     0
290
     0
174
     0
 93
       13
 44
0.0
173
     0
291
     1
 45
0.0
1001
ACAD
1000
AcDbSavedByObjectVersion
1070
     0
  0
VISUALSTYLE
  5
38
102
{ACAD_REACTORS
330
2A
102
}
102
{ACAD_XDICTIONARY
360
2C3
102
}
330
2A
100
AcDbVisualStyle
  2
Linepattern
 70
    14
 71
     2
 72
     2
 73
     0
 90
        0
 40
-0.6
 41
-30.0
 62
     5
 63
     7
 74
     1
 91
        4
 64
     7
 65
   257
 75
     7
175
     7
 42
1.0
 92
        8
 66
     7
 43
1.0
 76
     1
 77
     6
 78
     2
 67
     7
 79
     5
170
     0
171
     0
290
     0
174
     0
 93
        1
 44
0.0
173
     0
291
     1
 45
0.0
1001
ACAD
1000
AcDbSavedByObjectVersion
1070
     0
  0
VISUALSTYLE
  5
33
102
{ACAD_REACTORS
330
2A
102
}
102
{ACAD_XDICTIONARY
360
2B9
102
}
330
2A
100
AcDbVisualStyle
  2
Realistic
 70
     8
 71
     2
 72
     2
 73
     0
 90
        0
 40
-0.6
 41
-30.0
 62
     5
 63
     7
 74
     1
 91
        0
 64
     7
 65
   257
 75
     1
175
     1
 42
1.0
 92
        8
 66
     8
 43
1.0
 76
     1
 77
     6
 78
     2
 67
     7
 79
     5
170
     0
171
     0
290
     0
174
     0
 93
       13
 44
0.0
173
     0
291
     0
 45
0.0
1001
ACAD
1000
AcDbSavedByObjectVersion
1070
     0
  0
VISUALSTYLE
  5
37
102
{ACAD_REACTORS
330
2A
102
}
102
{ACAD_XDICTIONARY
360
2C1
102
}
330
2A
100
AcDbVisualStyle
  2
Thicken
 70
    13
 71
     2
 72
     2
 73
     0
 90
        0
 40
-0.6
 41
-30.0
 62
     5
 63
     7
 74
     1
 91
        4
 64
     7
 65
   257
 75
     1
175
     1
 42
1.0
 92
       12
 66
     7
 43
1.0
 76
     1
 77
     6
 78
     2
 67
     7
 79
     5
170
     0
171
     0
290
     0
174
     0
 93
        1
 44
0.0
173
     0
291
     1
 45
0.0
1001
ACAD
1000
AcDbSavedByObjectVersion
1070
     0
  0
DICTIONARYVAR
  5
2A7
102
{ACAD_REACTORS
330
2A4
102
}
330
2A4
100
DictionaryVariables
280
     0
  1
2
  0
DICTIONARYVAR
  5
2A8
102
{ACAD_REACTORS
330
2A4
102
}
330
2A4
100
DictionaryVariables
280
     0
  1
1
  0
DICTIONARY
  5
2CB
330
3D
100
AcDbDictionary
280
     1
281
     1
  3
ACAD_XREC_ROUNDTRIP
360
2CC
  0
DICTIONARY
  5
2C9
330
3C
100
AcDbDictionary
280
     1
281
     1
  3
ACAD_XREC_ROUNDTRIP
360
2CA
  0
DICTIONARY
  5
2CD
330
3E
100
AcDbDictionary
280
     1
281
     1
  3
ACAD_XREC_ROUNDTRIP
360
2CE
  0
DICTIONARY
  5
2B1
330
2F
100
AcDbDictionary
280
     1
281
     1
  3
ACAD_XREC_ROUNDTRIP
360
2B2
  0
DICTIONARY
  5
2B5
330
31
100
AcDbDictionary
280
     1
281
     1
  3
ACAD_XREC_ROUNDTRIP
360
2B6
  0
DICTIONARY
  5
2B3
330
30
100
AcDbDictionary
280
     1
281
     1
  3
ACAD_XREC_ROUNDTRIP
360
2B4
  0
DICTIONARY
  5
2B7
330
32
100
AcDbDictionary
280
     1
281
     1
  3
ACAD_XREC_ROUNDTRIP
360
2B8
  0
DICTIONARY
  5
2BF
330
36
100
AcDbDictionary
280
     1
281
     1
  3
ACAD_XREC_ROUNDTRIP
360
2C0
  0
DICTIONARY
  5
2C7
330
3A
100
AcDbDictionary
280
     1
281
     1
  3
ACAD_XREC_ROUNDTRIP
360
2C8
  0
DICTIONARY
  5
2BB
330
34
100
AcDbDictionary
280
     1
281
     1
  3
ACAD_XREC_ROUNDTRIP
360
2BC
  0
DICTIONARY
  5
2BD
330
35
100
AcDbDictionary
280
     1
281
     1
  3
ACAD_XREC_ROUNDTRIP
360
2BE
  0
DICTIONARY
  5
2C5
330
39
100
AcDbDictionary
280
     1
281
     1
  3
ACAD_XREC_ROUNDTRIP
360
2C6
  0
DICTIONARY
  5
2A9
330
2B
100
AcDbDictionary
280
     1
281
     1
  3
ACAD_XREC_ROUNDTRIP
360
2AA
  0
DICTIONARY
  5
2AB
330
2C
100
AcDbDictionary
280
     1
281
     1
  3
ACAD_XREC_ROUNDTRIP
360
2AC
  0
DICTIONARY
  5
2AD
330
2D
100
AcDbDictionary
280
     1
281
     1
  3
ACAD_XREC_ROUNDTRIP
360
2AE
  0
DICTIONARY
  5
2AF
330
2E
100
AcDbDictionary
280
     1
281
     1
  3
ACAD_XREC_ROUNDTRIP
360
2B0
  0
DICTIONARY
  5
2C3
330
38
100
AcDbDictionary
280
     1
281
     1
  3
ACAD_XREC_ROUNDTRIP
360
2C4
  0
DICTIONARY
  5
2B9
330
33
100
AcDbDictionary
280
     1
281
     1
  3
ACAD_XREC_ROUNDTRIP
360
2BA
  0
DICTIONARY
  5
2C1
330
37
100
AcDbDictionary
280
     1
281
     1
  3
ACAD_XREC_ROUNDTRIP
360
2C2
  0
XRECORD
  5
2CC
102
{ACAD_REACTORS
330
2CB
102
}
330
2CB
100
AcDbXrecord
280
     1
102
MATERIAL
148
0.0
149
0.0
149
0.0
 93
        0
 94
      127
282
     0
 72
     1
 77
     1
171
     1
175
     1
179
     1
273
     0
  0
XRECORD
  5
2CA
102
{ACAD_REACTORS
330
2C9
102
}
330
2C9
100
AcDbXrecord
280
     1
102
MATERIAL
148
0.0
149
0.0
149
0.0
 93
        0
 94
      127
282
     0
 72
     1
 77
     1
171
     1
175
     1
179
     1
273
     0
  0
XRECORD
  5
2CE
102
{ACAD_REACTORS
330
2CD
102
}
330
2CD
100
AcDbXrecord
280
     1
102
MATERIAL
148
0.0
149
0.0
149
0.0
 93
        0
 94
      127
282
     0
 72
     1
 77
     1
171
     1
175
     1
179
     1
273
     0
  0
XRECORD
  5
2B2
102
{ACAD_REACTORS
330
2B1
102
}
330
2B1
100
AcDbXrecord
280
     1
102
RTVSPropertyOp0
 70
     1
102
RTVSPropertyOp1
 70
     1
102
RTVSPropertyOp2
 70
     1
102
RTVSPropertyOp3
 70
     1
102
RTVSPropertyOp4
 70
     1
102
RTVSPropertyOp5
 70
     1
102
RTVSPropertyOp6
 70
     1
102
RTVSPropertyOp7
 70
     1
102
RTVSPropertyOp8
 70
     1
102
RTVSPropertyOp9
 70
     1
102
RTVSPropertyOp10
 70
     1
102
RTVSPropertyOp11
 70
     1
102
RTVSPropertyOp12
 70
     1
102
RTVSPropertyOp13
 70
     1
102
RTVSPropertyOp14
 70
     1
102
RTVSPropertyOp15
 70
     1
102
RTVSPropertyOp16
 70
     1
102
RTVSPropertyOp17
 70
     1
102
RTVSPropertyOp18
 70
     1
102
RTVSPropertyOp19
 70
     1
102
RTVSPropertyOp20
 70
     1
102
RTVSPropertyOp21
 70
     1
102
RTVSPropertyOp22
 70
     1
102
RTVSPropertyOp23
 70
     1
102
RTVSPropertyOp24
 70
     1
102
RTVSPropertyOp25
 70
     1
102
RTVSPropertyOp26
 70
     1
102
RTVSPropertyOp27
 70
     1
102
RTVSPropertyOp28
 70
     1
102
RTVSPropertyOp29
 70
     1
102
RTVSPropertyOp30
 70
     1
102
RTVSPropertyOp31
 70
     1
102
RTVSPropertyOp32
 70
     1
  0
XRECORD
  5
2B6
102
{ACAD_REACTORS
330
2B5
102
}
330
2B5
100
AcDbXrecord
280
     1
102
RTVSPropertyOp0
 70
     1
102
RTVSPropertyOp1
 70
     1
102
RTVSPropertyOp2
 70
     1
102
RTVSPropertyOp3
 70
     1
102
RTVSPropertyOp4
 70
     1
102
RTVSPropertyOp5
 70
     1
102
RTVSPropertyOp6
 70
     1
102
RTVSPropertyOp7
 70
     1
102
RTVSPropertyOp8
 70
     1
102
RTVSPropertyOp9
 70
     1
102
RTVSPropertyOp10
 70
     1
102
RTVSPropertyOp11
 70
     1
102
RTVSPropertyOp12
 70
     1
102
RTVSPropertyOp13
 70
     1
102
RTVSPropertyOp14
 70
     1
102
RTVSPropertyOp15
 70
     1
102
RTVSPropertyOp16
 70
     1
102
RTVSPropertyOp17
 70
     1
102
RTVSPropertyOp18
 70
     1
102
RTVSPropertyOp19
 70
     1
102
RTVSPropertyOp20
 70
     1
102
RTVSPropertyOp21
 70
     1
102
RTVSPropertyOp22
 70
     1
102
RTVSPropertyOp23
 70
     1
102
RTVSPropertyOp24
 70
     1
102
RTVSPropertyOp25
 70
     1
102
RTVSPropertyOp26
 70
     1
102
RTVSPropertyOp27
 70
     1
102
RTVSPropertyOp28
 70
     1
102
RTVSPropertyOp29
 70
     1
102
RTVSPropertyOp30
 70
     1
102
RTVSPropertyOp31
 70
     1
102
RTVSPropertyOp32
 70
     1
  0
XRECORD
  5
2B4
102
{ACAD_REACTORS
330
2B3
102
}
330
2B3
100
AcDbXrecord
280
     1
102
RTVSPropertyOp0
 70
     1
102
RTVSPropertyOp1
 70
     1
102
RTVSPropertyOp2
 70
     1
102
RTVSPropertyOp3
 70
     1
102
RTVSPropertyOp4
 70
     1
102
RTVSPropertyOp5
 70
     1
102
RTVSPropertyOp6
 70
     1
102
RTVSPropertyOp7
 70
     1
102
RTVSPropertyOp8
 70
     1
102
RTVSPropertyOp9
 70
     1
102
RTVSPropertyOp10
 70
     1
102
RTVSPropertyOp11
 70
     1
102
RTVSPropertyOp12
 70
     1
102
RTVSPropertyOp13
 70
     1
102
RTVSPropertyOp14
 70
     1
102
RTVSPropertyOp15
 70
     1
102
RTVSPropertyOp16
 70
     1
102
RTVSPropertyOp17
 70
     1
102
RTVSPropertyOp18
 70
     1
102
RTVSPropertyOp19
 70
     1
102
RTVSPropertyOp20
 70
     1
102
RTVSPropertyOp21
 70
     1
102
RTVSPropertyOp22
 70
     1
102
RTVSPropertyOp23
 70
     1
102
RTVSPropertyOp24
 70
     1
102
RTVSPropertyOp25
 70
     1
102
RTVSPropertyOp26
 70
     1
102
RTVSPropertyOp27
 70
     1
102
RTVSPropertyOp28
 70
     1
102
RTVSPropertyOp29
 70
     1
102
RTVSPropertyOp30
 70
     1
102
RTVSPropertyOp31
 70
     1
102
RTVSPropertyOp32
 70
     1
  0
XRECORD
  5
2B8
102
{ACAD_REACTORS
330
2B7
102
}
330
2B7
100
AcDbXrecord
280
     1
102
RTVSPropertyOp0
 70
     1
102
RTVSPropertyOp1
 70
     1
102
RTVSPropertyOp2
 70
     1
102
RTVSPropertyOp3
 70
     1
102
RTVSPropertyOp4
 70
     1
102
RTVSPropertyOp5
 70
     1
102
RTVSPropertyOp6
 70
     1
102
RTVSPropertyOp7
 70
     1
102
RTVSPropertyOp8
 70
     1
102
RTVSPropertyOp9
 70
     1
102
RTVSPropertyOp10
 70
     1
102
RTVSPropertyOp11
 70
     1
102
RTVSPropertyOp12
 70
     1
102
RTVSPropertyOp13
 70
     1
102
RTVSPropertyOp14
 70
     1
102
RTVSPropertyOp15
 70
     1
102
RTVSPropertyOp16
 70
     1
102
RTVSPropertyOp17
 70
     1
102
RTVSPropertyOp18
 70
     1
102
RTVSPropertyOp19
 70
     1
102
RTVSPropertyOp20
 70
     1
102
RTVSPropertyOp21
 70
     1
102
RTVSPropertyOp22
 70
     1
102
RTVSPropertyOp23
 70
     1
102
RTVSPropertyOp24
 70
     1
102
RTVSPropertyOp25
 70
     1
102
RTVSPropertyOp26
 70
     1
102
RTVSPropertyOp27
 70
     1
102
RTVSPropertyOp28
 70
     1
102
RTVSPropertyOp29
 70
     1
102
RTVSPropertyOp30
 70
     1
102
RTVSPropertyOp31
 70
     1
102
RTVSPropertyOp32
 70
     1
  0
XRECORD
  5
2C0
102
{ACAD_REACTORS
330
2BF
102
}
330
2BF
100
AcDbXrecord
280
     1
102
RTVSPropertyOp0
 70
     1
102
RTVSPropertyOp1
 70
     1
102
RTVSPropertyOp2
 70
     1
102
RTVSPropertyOp3
 70
     1
102
RTVSPropertyOp4
 70
     1
102
RTVSPropertyOp5
 70
     1
102
RTVSPropertyOp6
 70
     1
102
RTVSPropertyOp7
 70
     1
102
RTVSPropertyOp8
 70
     1
102
RTVSPropertyOp9
 70
     1
102
RTVSPropertyOp10
 70
     1
102
RTVSPropertyOp11
 70
     1
102
RTVSPropertyOp12
 70
     1
102
RTVSPropertyOp13
 70
     1
102
RTVSPropertyOp14
 70
     1
102
RTVSPropertyOp15
 70
     1
102
RTVSPropertyOp16
 70
     1
102
RTVSPropertyOp17
 70
     1
102
RTVSPropertyOp18
 70
     1
102
RTVSPropertyOp19
 70
     1
102
RTVSPropertyOp20
 70
     1
102
RTVSPropertyOp21
 70
     1
102
RTVSPropertyOp22
 70
     1
102
RTVSPropertyOp23
 70
     1
102
RTVSPropertyOp24
 70
     1
102
RTVSPropertyOp25
 70
     1
102
RTVSPropertyOp26
 70
     1
102
RTVSPropertyOp27
 70
     1
102
RTVSPropertyOp28
 70
     1
102
RTVSPropertyOp29
 70
     1
102
RTVSPropertyOp30
 70
     1
102
RTVSPropertyOp31
 70
     1
102
RTVSPropertyOp32
 70
     1
  0
XRECORD
  5
2C8
102
{ACAD_REACTORS
330
2C7
102
}
330
2C7
100
AcDbXrecord
280
     1
102
RTVSPropertyOp0
 70
     1
102
RTVSPropertyOp1
 70
     1
102
RTVSPropertyOp2
 70
     1
102
RTVSPropertyOp3
 70
     1
102
RTVSPropertyOp4
 70
     1
102
RTVSPropertyOp5
 70
     1
102
RTVSPropertyOp6
 70
     1
102
RTVSPropertyOp7
 70
     1
102
RTVSPropertyOp8
 70
     1
102
RTVSPropertyOp9
 70
     1
102
RTVSPropertyOp10
 70
     1
102
RTVSPropertyOp11
 70
     1
102
RTVSPropertyOp12
 70
     1
102
RTVSPropertyOp13
 70
     1
102
RTVSPropertyOp14
 70
     1
102
RTVSPropertyOp15
 70
     1
102
RTVSPropertyOp16
 70
     1
102
RTVSPropertyOp17
 70
     1
102
RTVSPropertyOp18
 70
     1
102
RTVSPropertyOp19
 70
     1
102
RTVSPropertyOp20
 70
     1
102
RTVSPropertyOp21
 70
     1
102
RTVSPropertyOp22
 70
     1
102
RTVSPropertyOp23
 70
     1
102
RTVSPropertyOp24
 70
     1
102
RTVSPropertyOp25
 70
     1
102
RTVSPropertyOp26
 70
     1
102
RTVSPropertyOp27
 70
     1
102
RTVSPropertyOp28
 70
     1
102
RTVSPropertyOp29
 70
     1
102
RTVSPropertyOp30
 70
     1
102
RTVSPropertyOp31
 70
     1
102
RTVSPropertyOp32
 70
     1
  0
XRECORD
  5
2BC
102
{ACAD_REACTORS
330
2BB
102
}
330
2BB
100
AcDbXrecord
280
     1
102
RTVSPropertyOp0
 70
     1
102
RTVSPropertyOp1
 70
     1
102
RTVSPropertyOp2
 70
     1
102
RTVSPropertyOp3
 70
     1
102
RTVSPropertyOp4
 70
     1
102
RTVSPropertyOp5
 70
     1
102
RTVSPropertyOp6
 70
     1
102
RTVSPropertyOp7
 70
     1
102
RTVSPropertyOp8
 70
     1
102
RTVSPropertyOp9
 70
     1
102
RTVSPropertyOp10
 70
     1
102
RTVSPropertyOp11
 70
     1
102
RTVSPropertyOp12
 70
     1
102
RTVSPropertyOp13
 70
     1
102
RTVSPropertyOp14
 70
     1
102
RTVSPropertyOp15
 70
     1
102
RTVSPropertyOp16
 70
     1
102
RTVSPropertyOp17
 70
     1
102
RTVSPropertyOp18
 70
     1
102
RTVSPropertyOp19
 70
     1
102
RTVSPropertyOp20
 70
     1
102
RTVSPropertyOp21
 70
     1
102
RTVSPropertyOp22
 70
     1
102
RTVSPropertyOp23
 70
     1
102
RTVSPropertyOp24
 70
     1
102
RTVSPropertyOp25
 70
     1
102
RTVSPropertyOp26
 70
     1
102
RTVSPropertyOp27
 70
     1
102
RTVSPropertyOp28
 70
     1
102
RTVSPropertyOp29
 70
     1
102
RTVSPropertyOp30
 70
     1
102
RTVSPropertyOp31
 70
     1
102
RTVSPropertyOp32
 70
     1
  0
XRECORD
  5
2BE
102
{ACAD_REACTORS
330
2BD
102
}
330
2BD
100
AcDbXrecord
280
     1
102
RTVSPropertyOp0
 70
     1
102
RTVSPropertyOp1
 70
     1
102
RTVSPropertyOp2
 70
     1
102
RTVSPropertyOp3
 70
     1
102
RTVSPropertyOp4
 70
     1
102
RTVSPropertyOp5
 70
     1
102
RTVSPropertyOp6
 70
     1
102
RTVSPropertyOp7
 70
     1
102
RTVSPropertyOp8
 70
     1
102
RTVSPropertyOp9
 70
     1
102
RTVSPropertyOp10
 70
     1
102
RTVSPropertyOp11
 70
     1
102
RTVSPropertyOp12
 70
     1
102
RTVSPropertyOp13
 70
     1
102
RTVSPropertyOp14
 70
     1
102
RTVSPropertyOp15
 70
     1
102
RTVSPropertyOp16
 70
     1
102
RTVSPropertyOp17
 70
     1
102
RTVSPropertyOp18
 70
     1
102
RTVSPropertyOp19
 70
     1
102
RTVSPropertyOp20
 70
     1
102
RTVSPropertyOp21
 70
     1
102
RTVSPropertyOp22
 70
     1
102
RTVSPropertyOp23
 70
     1
102
RTVSPropertyOp24
 70
     1
102
RTVSPropertyOp25
 70
     1
102
RTVSPropertyOp26
 70
     1
102
RTVSPropertyOp27
 70
     1
102
RTVSPropertyOp28
 70
     1
102
RTVSPropertyOp29
 70
     1
102
RTVSPropertyOp30
 70
     1
102
RTVSPropertyOp31
 70
     1
102
RTVSPropertyOp32
 70
     1
  0
XRECORD
  5
2C6
102
{ACAD_REACTORS
330
2C5
102
}
330
2C5
100
AcDbXrecord
280
     1
102
RTVSPropertyOp0
 70
     1
102
RTVSPropertyOp1
 70
     1
102
RTVSPropertyOp2
 70
     1
102
RTVSPropertyOp3
 70
     1
102
RTVSPropertyOp4
 70
     1
102
RTVSPropertyOp5
 70
     1
102
RTVSPropertyOp6
 70
     1
102
RTVSPropertyOp7
 70
     1
102
RTVSPropertyOp8
 70
     1
102
RTVSPropertyOp9
 70
     1
102
RTVSPropertyOp10
 70
     1
102
RTVSPropertyOp11
 70
     1
102
RTVSPropertyOp12
 70
     1
102
RTVSPropertyOp13
 70
     1
102
RTVSPropertyOp14
 70
     1
102
RTVSPropertyOp15
 70
     1
102
RTVSPropertyOp16
 70
     1
102
RTVSPropertyOp17
 70
     1
102
RTVSPropertyOp18
 70
     1
102
RTVSPropertyOp19
 70
     1
102
RTVSPropertyOp20
 70
     1
102
RTVSPropertyOp21
 70
     1
102
RTVSPropertyOp22
 70
     1
102
RTVSPropertyOp23
 70
     1
102
RTVSPropertyOp24
 70
     1
102
RTVSPropertyOp25
 70
     1
102
RTVSPropertyOp26
 70
     1
102
RTVSPropertyOp27
 70
     1
102
RTVSPropertyOp28
 70
     1
102
RTVSPropertyOp29
 70
     1
102
RTVSPropertyOp30
 70
     1
102
RTVSPropertyOp31
 70
     1
102
RTVSPropertyOp32
 70
     1
  0
XRECORD
  5
2AA
102
{ACAD_REACTORS
330
2A9
102
}
330
2A9
100
AcDbXrecord
280
     1
102
RTVSPropertyOp0
 70
     1
102
RTVSPropertyOp1
 70
     1
102
RTVSPropertyOp2
 70
     1
102
RTVSPropertyOp3
 70
     1
102
RTVSPropertyOp4
 70
     1
102
RTVSPropertyOp5
 70
     1
102
RTVSPropertyOp6
 70
     1
102
RTVSPropertyOp7
 70
     1
102
RTVSPropertyOp8
 70
     1
102
RTVSPropertyOp9
 70
     1
102
RTVSPropertyOp10
 70
     1
102
RTVSPropertyOp11
 70
     1
102
RTVSPropertyOp12
 70
     1
102
RTVSPropertyOp13
 70
     1
102
RTVSPropertyOp14
 70
     1
102
RTVSPropertyOp15
 70
     1
102
RTVSPropertyOp16
 70
     1
102
RTVSPropertyOp17
 70
     1
102
RTVSPropertyOp18
 70
     1
102
RTVSPropertyOp19
 70
     1
102
RTVSPropertyOp20
 70
     1
102
RTVSPropertyOp21
 70
     1
102
RTVSPropertyOp22
 70
     1
102
RTVSPropertyOp23
 70
     1
102
RTVSPropertyOp24
 70
     1
102
RTVSPropertyOp25
 70
     1
102
RTVSPropertyOp26
 70
     1
102
RTVSPropertyOp27
 70
     1
102
RTVSPropertyOp28
 70
     1
102
RTVSPropertyOp29
 70
     1
102
RTVSPropertyOp30
 70
     1
102
RTVSPropertyOp31
 70
     1
102
RTVSPropertyOp32
 70
     1
  0
XRECORD
  5
2AC
102
{ACAD_REACTORS
330
2AB
102
}
330
2AB
100
AcDbXrecord
280
     1
102
RTVSPropertyOp0
 70
     1
102
RTVSPropertyOp1
 70
     1
102
RTVSPropertyOp2
 70
     1
102
RTVSPropertyOp3
 70
     1
102
RTVSPropertyOp4
 70
     1
102
RTVSPropertyOp5
 70
     1
102
RTVSPropertyOp6
 70
     1
102
RTVSPropertyOp7
 70
     1
102
RTVSPropertyOp8
 70
     1
102
RTVSPropertyOp9
 70
     1
102
RTVSPropertyOp10
 70
     1
102
RTVSPropertyOp11
 70
     1
102
RTVSPropertyOp12
 70
     1
102
RTVSPropertyOp13
 70
     1
102
RTVSPropertyOp14
 70
     1
102
RTVSPropertyOp15
 70
     1
102
RTVSPropertyOp16
 70
     1
102
RTVSPropertyOp17
 70
     1
102
RTVSPropertyOp18
 70
     1
102
RTVSPropertyOp19
 70
     1
102
RTVSPropertyOp20
 70
     1
102
RTVSPropertyOp21
 70
     1
102
RTVSPropertyOp22
 70
     1
102
RTVSPropertyOp23
 70
     1
102
RTVSPropertyOp24
 70
     1
102
RTVSPropertyOp25
 70
     1
102
RTVSPropertyOp26
 70
     1
102
RTVSPropertyOp27
 70
     1
102
RTVSPropertyOp28
 70
     1
102
RTVSPropertyOp29
 70
     1
102
RTVSPropertyOp30
 70
     1
102
RTVSPropertyOp31
 70
     1
102
RTVSPropertyOp32
 70
     1
  0
XRECORD
  5
2AE
102
{ACAD_REACTORS
330
2AD
102
}
330
2AD
100
AcDbXrecord
280
     1
102
RTVSPropertyOp0
 70
     1
102
RTVSPropertyOp1
 70
     1
102
RTVSPropertyOp2
 70
     1
102
RTVSPropertyOp3
 70
     1
102
RTVSPropertyOp4
 70
     1
102
RTVSPropertyOp5
 70
     1
102
RTVSPropertyOp6
 70
     1
102
RTVSPropertyOp7
 70
     1
102
RTVSPropertyOp8
 70
     1
102
RTVSPropertyOp9
 70
     1
102
RTVSPropertyOp10
 70
     1
102
RTVSPropertyOp11
 70
     1
102
RTVSPropertyOp12
 70
     1
102
RTVSPropertyOp13
 70
     1
102
RTVSPropertyOp14
 70
     1
102
RTVSPropertyOp15
 70
     1
102
RTVSPropertyOp16
 70
     1
102
RTVSPropertyOp17
 70
     1
102
RTVSPropertyOp18
 70
     1
102
RTVSPropertyOp19
 70
     1
102
RTVSPropertyOp20
 70
     1
102
RTVSPropertyOp21
 70
     1
102
RTVSPropertyOp22
 70
     1
102
RTVSPropertyOp23
 70
     1
102
RTVSPropertyOp24
 70
     1
102
RTVSPropertyOp25
 70
     1
102
RTVSPropertyOp26
 70
     1
102
RTVSPropertyOp27
 70
     1
102
RTVSPropertyOp28
 70
     1
102
RTVSPropertyOp29
 70
     1
102
RTVSPropertyOp30
 70
     1
102
RTVSPropertyOp31
 70
     1
102
RTVSPropertyOp32
 70
     1
  0
XRECORD
  5
2B0
102
{ACAD_REACTORS
330
2AF
102
}
330
2AF
100
AcDbXrecord
280
     1
102
RTVSPropertyOp0
 70
     1
102
RTVSPropertyOp1
 70
     1
102
RTVSPropertyOp2
 70
     1
102
RTVSPropertyOp3
 70
     1
102
RTVSPropertyOp4
 70
     1
102
RTVSPropertyOp5
 70
     1
102
RTVSPropertyOp6
 70
     1
102
RTVSPropertyOp7
 70
     1
102
RTVSPropertyOp8
 70
     1
102
RTVSPropertyOp9
 70
     1
102
RTVSPropertyOp10
 70
     1
102
RTVSPropertyOp11
 70
     1
102
RTVSPropertyOp12
 70
     1
102
RTVSPropertyOp13
 70
     1
102
RTVSPropertyOp14
 70
     1
102
RTVSPropertyOp15
 70
     1
102
RTVSPropertyOp16
 70
     1
102
RTVSPropertyOp17
 70
     1
102
RTVSPropertyOp18
 70
     1
102
RTVSPropertyOp19
 70
     1
102
RTVSPropertyOp20
 70
     1
102
RTVSPropertyOp21
 70
     1
102
RTVSPropertyOp22
 70
     1
102
RTVSPropertyOp23
 70
     1
102
RTVSPropertyOp24
 70
     1
102
RTVSPropertyOp25
 70
     1
102
RTVSPropertyOp26
 70
     1
102
RTVSPropertyOp27
 70
     1
102
RTVSPropertyOp28
 70
     1
102
RTVSPropertyOp29
 70
     1
102
RTVSPropertyOp30
 70
     1
102
RTVSPropertyOp31
 70
     1
102
RTVSPropertyOp32
 70
     1
  0
XRECORD
  5
2C4
102
{ACAD_REACTORS
330
2C3
102
}
330
2C3
100
AcDbXrecord
280
     1
102
RTVSPropertyOp0
 70
     1
102
RTVSPropertyOp1
 70
     1
102
RTVSPropertyOp2
 70
     1
102
RTVSPropertyOp3
 70
     1
102
RTVSPropertyOp4
 70
     1
102
RTVSPropertyOp5
 70
     1
102
RTVSPropertyOp6
 70
     1
102
RTVSPropertyOp7
 70
     1
102
RTVSPropertyOp8
 70
     1
102
RTVSPropertyOp9
 70
     1
102
RTVSPropertyOp10
 70
     1
102
RTVSPropertyOp11
 70
     1
102
RTVSPropertyOp12
 70
     1
102
RTVSPropertyOp13
 70
     1
102
RTVSPropertyOp14
 70
     1
102
RTVSPropertyOp15
 70
     1
102
RTVSPropertyOp16
 70
     1
102
RTVSPropertyOp17
 70
     1
102
RTVSPropertyOp18
 70
     1
102
RTVSPropertyOp19
 70
     1
102
RTVSPropertyOp20
 70
     1
102
RTVSPropertyOp21
 70
     1
102
RTVSPropertyOp22
 70
     1
102
RTVSPropertyOp23
 70
     1
102
RTVSPropertyOp24
 70
     1
102
RTVSPropertyOp25
 70
     1
102
RTVSPropertyOp26
 70
     1
102
RTVSPropertyOp27
 70
     1
102
RTVSPropertyOp28
 70
     1
102
RTVSPropertyOp29
 70
     1
102
RTVSPropertyOp30
 70
     1
102
RTVSPropertyOp31
 70
     1
102
RTVSPropertyOp32
 70
     1
  0
XRECORD
  5
2BA
102
{ACAD_REACTORS
330
2B9
102
}
330
2B9
100
AcDbXrecord
280
     1
102
RTVSPropertyOp0
 70
     1
102
RTVSPropertyOp1
 70
     1
102
RTVSPropertyOp2
 70
     1
102
RTVSPropertyOp3
 70
     1
102
RTVSPropertyOp4
 70
     1
102
RTVSPropertyOp5
 70
     1
102
RTVSPropertyOp6
 70
     1
102
RTVSPropertyOp7
 70
     1
102
RTVSPropertyOp8
 70
     1
102
RTVSPropertyOp9
 70
     1
102
RTVSPropertyOp10
 70
     1
102
RTVSPropertyOp11
 70
     1
102
RTVSPropertyOp12
 70
     1
102
RTVSPropertyOp13
 70
     1
102
RTVSPropertyOp14
 70
     1
102
RTVSPropertyOp15
 70
     1
102
RTVSPropertyOp16
 70
     1
102
RTVSPropertyOp17
 70
     1
102
RTVSPropertyOp18
 70
     1
102
RTVSPropertyOp19
 70
     1
102
RTVSPropertyOp20
 70
     1
102
RTVSPropertyOp21
 70
     1
102
RTVSPropertyOp22
 70
     1
102
RTVSPropertyOp23
 70
     1
102
RTVSPropertyOp24
 70
     1
102
RTVSPropertyOp25
 70
     1
102
RTVSPropertyOp26
 70
     1
102
RTVSPropertyOp27
 70
     1
102
RTVSPropertyOp28
 70
     1
102
RTVSPropertyOp29
 70
     1
102
RTVSPropertyOp30
 70
     1
102
RTVSPropertyOp31
 70
     1
102
RTVSPropertyOp32
 70
     1
  0
XRECORD
  5
2C2
102
{ACAD_REACTORS
330
2C1
102
}
330
2C1
100
AcDbXrecord
280
     1
102
RTVSPropertyOp0
 70
     1
102
RTVSPropertyOp1
 70
     1
102
RTVSPropertyOp2
 70
     1
102
RTVSPropertyOp3
 70
     1
102
RTVSPropertyOp4
 70
     1
102
RTVSPropertyOp5
 70
     1
102
RTVSPropertyOp6
 70
     1
102
RTVSPropertyOp7
 70
     1
102
RTVSPropertyOp8
 70
     1
102
RTVSPropertyOp9
 70
     1
102
RTVSPropertyOp10
 70
     1
102
RTVSPropertyOp11
 70
     1
102
RTVSPropertyOp12
 70
     1
102
RTVSPropertyOp13
 70
     1
102
RTVSPropertyOp14
 70
     1
102
RTVSPropertyOp15
 70
     1
102
RTVSPropertyOp16
 70
     1
102
RTVSPropertyOp17
 70
     1
102
RTVSPropertyOp18
 70
     1
102
RTVSPropertyOp19
 70
     1
102
RTVSPropertyOp20
 70
     1
102
RTVSPropertyOp21
 70
     1
102
RTVSPropertyOp22
 70
     1
102
RTVSPropertyOp23
 70
     1
102
RTVSPropertyOp24
 70
     1
102
RTVSPropertyOp25
 70
     1
102
RTVSPropertyOp26
 70
     1
102
RTVSPropertyOp27
 70
     1
102
RTVSPropertyOp28
 70
     1
102
RTVSPropertyOp29
 70
     1
102
RTVSPropertyOp30
 70
     1
102
RTVSPropertyOp31
 70
     1
102
RTVSPropertyOp32
 70
     1
  0
ENDSEC
  0
EOF
